Romeo must die/ Ромео должен умереть (Анджей Бартковяк) [2000 г., боевик,криминал, DVDRip]

Ответить на тему
 

vla2 ®

Стаж: 4 года 11 месяцев

Сообщений: 20

Romeo must die
Год выпуска: 2000
Cтрана: США
Жанр: боевик,криминал
Продолжительность: 1:48:20
Язык: английский
Режиссер: Анджей Бартковяк
В ролях: Джет Ли, Алия, Исайя Вашингтон, Расселл Вонг, DMX, Делрой Линдо, Д.Б. Вудсайд, Генри О, Джонкит Ли, Эдоардо Баллерини
Описание: У них есть оружие. У них есть деньги. Но у них нет никаких шансов против бывшего полицейского Хан Синга. Джет Ли играет крутого и готового на все Хана, не без взаимности влюбленного в Триш О Дэй, несмотря на то, что их семьи ведут жестокую войну за передел в Окленде. Опасности объединяют влюбленных, когда они пытаются выяснить истинные причины кровавых разборок.
Качество: DVDRip
Формат: AVI
Видео кодек: DivX
Аудио кодек: MP3
Видео: XVID, 640x352(16:9), 25.000 fps, DivX, 929 Kbps
Аудио: MP3, 118 Kbps, 48.0 KHz, 2 channels

МедиаИнфо

Код:
General
Complete name : D:\cartoons\english\Romeo must die.avi
Format : AVI
Format/Info : Audio Video Interleave
File size : 822 MiB
Duration : 1h 48mn
Overall bit rate mode : Variable
Overall bit rate : 1 060 Kbps
Writing application : VirtualDubMod 1.5.10.1 (build 2366/release)
Writing library : VirtualDubMod build 2366/release
Video
ID : 0
Format : MPEG-4 Visual
Format settings, BVOP : 1
Format settings, QPel : No
Format settings, GMC : No warppoints
Format settings, Matrix : Default (H.263)
Muxing mode : Packed bitstream
Codec ID : DX50
Codec ID/Hint : DivX 5
Duration : 1h 48mn
Bit rate : 929 Kbps
Width : 640 pixels
Height : 352 pixels
Display aspect ratio : 16:9
Frame rate : 25.000 fps
Color space : YUV
Chroma subsampling : 4:2:0
Bit depth : 8 bits
Scan type : Progressive
Compression mode : Lossy
Bits/(Pixel*Frame) : 0.165
Stream size : 720 MiB (88%)
Writing library : DivX 5.2.1 (WaffleDay) (UTC 2004-09-08)
Audio
ID : 1
Format : MPEG Audio
Format version : Version 1
Format profile : Layer 3
Mode : Joint stereo
Mode extension : MS Stereo
Codec ID : 55
Codec ID/Hint : MP3
Duration : 1h 48mn
Bit rate mode : Variable
Bit rate : 118 Kbps
Nominal bit rate : 128 Kbps
Channel(s) : 2 channels
Sampling rate : 48.0 KHz
Compression mode : Lossy
Stream size : 91.5 MiB (11%)
Alignment : Aligned on interleaves
Interleave, duration : 24 ms (0.60 video frame)
Interleave, preload duration : 156 ms
Writing library : LAME3.90.
Encoding settings : -m j -V 0 -q 5 -lowpass 15.3 --abr 128

Скриншоты







Последний раз редактировалось: vla2 (2013-02-10 21:21), всего редактировалось 14 раз(а)

Создавать темы 09-Фев-2013 19:25

[Профиль]  [ЛС] 

victor0778

Стаж: 6 лет 6 месяцев

Сообщений: 1670

Симпатии: 142

vla2, ещё 1 скриншот добавьте

Создавать темы 10-Фев-2013 01:29

[Профиль]  [ЛС] 

vla2 ®

Стаж: 4 года 11 месяцев

Сообщений: 20

добавил

Создавать темы 10-Фев-2013 02:44

[Профиль]  [ЛС] 

victor0778

Стаж: 6 лет 6 месяцев

Сообщений: 1670

Симпатии: 142

vla2, медиа инфо добавьте, а то тех. данные сомнительны

Создавать темы 10-Фев-2013 11:31

[Профиль]  [ЛС] 

vla2 ®

Стаж: 4 года 11 месяцев

Сообщений: 20

был перезалит.извините за неудобства.

Создавать темы 10-Фев-2013 16:14

[Профиль]  [ЛС] 

victor0778

Стаж: 6 лет 6 месяцев

Сообщений: 1670

Симпатии: 142

vla2, Вы зачем медиа инфо правите???
Overall bit rate : 927 Kbps- это общий битрейт данного фильма
Bit rate : 1873 Kbps- как такое может быть???
Bit rate : 384 Kbps- как такое может быть???

Создавать темы 10-Фев-2013 16:47

[Профиль]  [ЛС] 

Xuri007

Стаж: 5 лет 2 месяца

Сообщений: 106

классный фильм, спс за релиз

Создавать темы 10-Фев-2013 22:55

[Профиль]  [ЛС] 

vla2 ®

Стаж: 4 года 11 месяцев

Сообщений: 20

Приятного просмотра

Создавать темы 11-Фев-2013 23:07

[Профиль]  [ЛС] 

Ulugbek777

Стаж: 5 лет 7 месяцев

Сообщений: 23

kuchirmayabdikuuuu

Создавать темы 22-Фев-2013 08:19

[Профиль]  [ЛС] 

jaguar_96

Стаж: 4 года 7 месяцев

Сообщений: 4

люди встаньте на раздачу,плз

Создавать темы 22-Фев-2013 20:11

[Профиль]  [ЛС] 

vla2 ®

Стаж: 4 года 11 месяцев

Сообщений: 20

лично я раздаю по мере возможности

Создавать темы 24-Фев-2013 11:14

[Профиль]  [ЛС] 
Показать сообщения:    
Ответить на тему

Текущее время: 19-Авг 20:02

Часовой пояс: UTC + 5



Вы не можете начинать темы
Вы не можете отвечать на сообщения
Вы не можете редактировать свои сообщения
Вы не можете удалять свои сообщения
Вы не можете голосовать в опросах
Вы не можете прикреплять файлы к сообщениям
Вы не можете скачивать файлы