Про Федота-стрельца, удалого молодца (Людмила Стеблянко) [2008 г., Мультфильм, фэнтези, триллер, приключения, семейный, DVDRip]

Ответить на тему
 

yarik ®

Стаж: 4 года 6 месяцев

Сообщений: 225

Симпатии: 123

Про Федота-стрельца, удалого молодца
Год выпуска: 2008
Страна: Россия
Жанр: Мультфильм, фэнтези, триллер, приключения, семейный
Продолжительность: 01:13:39
Перевод: Профессиональный (полное дублирование)
Режиссер: Людмила Стеблянко
В ролях: Сергей Безруков, Чулпан Хаматова, Виктор Сухоруков, Дмитрий Дюжев, Александр Ревва, Ирина Безрукова, Константин Бронзит, Евгения Добровольская, Олег Куликович, Михаил Ефремов
Описание: Федот — обычный крестьянин, у которого есть красивая и услужливая жена Маруся. Царю очень понравилась Маруся. Но на его пути стоит Федот. Чтобы убрать Федота, царь загадывает ему загадки. Они становятся все сложнее и сложнее, а на кону — жизнь героя. Самое последнее, чего пожелал царь — это «принеси то, чего на свете быть не может».
Качество: DVDRip
Формат: AVI
Видео кодек: DivX
Аудио кодек: MP3
Видео: 688x288, 1190 кб/с
Аудио: 2 к., 128 кб/с

Отчёт MediaInfo

General
Complete name : D:\Videos\Pro.Fedora.Strelza.Udalogo.Molodza.2008.DivX.DVDRip.avi
Format : AVI
Format/Info : Audio Video Interleave
File size : 699 MiB
Duration : 1h 13mn
Overall bit rate : 1 326 Kbps
Writing application : FairUse Wizard - http://fairusewizard.com
Writing library : The best and REALLY easy backup tool
Video
ID : 0
Format : MPEG-4 Visual
Format settings, BVOP : 1
Format settings, QPel : No
Format settings, GMC : No warppoints
Format settings, Matrix : Default (H.263)
Muxing mode : Packed bitstream
Codec ID : DX50
Codec ID/Hint : DivX 5
Duration : 1h 13mn
Bit rate : 1 189 Kbps
Width : 688 pixels
Height : 288 pixels
Display aspect ratio : 2.40:1
Frame rate : 25.000 fps
Color space : YUV
Chroma subsampling : 4:2:0
Bit depth : 8 bits
Scan type : Progressive
Compression mode : Lossy
Bits/(Pixel*Frame) : 0.240
Stream size : 626 MiB (90%)
Writing library : DivX 6.8.5 (UTC 2009-08-20)
Audio
ID : 1
Format : MPEG Audio
Format version : Version 1
Format profile : Layer 3
Mode : Joint stereo
Codec ID : 55
Codec ID/Hint : MP3
Duration : 1h 13mn
Bit rate mode : Constant
Bit rate : 128 Kbps
Channel(s) : 2 channels
Sampling rate : 48.0 KHz
Compression mode : Lossy
Stream size : 67.4 MiB (10%)
Alignment : Aligned on interleaves
Interleave, duration : 40 ms (1.00 video frame)
Interleave, preload duration : 504 ms
Writing library : LAME3.97
Encoding settings : -m j -V 4 -q 2 -lowpass 17 -b 128

Скриншоты



Последний раз редактировалось: yarik (2013-02-09 21:25), всего редактировалось 1 раз

Создавать темы 09-Фев-2013 20:41

[Профиль]  [ЛС] 

voody

Стаж: 4 года 6 месяцев

Сообщений: 41

дайте раздачу пожалуйста

Создавать темы 10-Фев-2013 16:24

[Профиль]  [ЛС] 

yarik ®

Стаж: 4 года 6 месяцев

Сообщений: 225

Симпатии: 123

Я и так на супер-сиде раздаю.

Создавать темы 10-Фев-2013 18:31

[Профиль]  [ЛС] 

Arturcheg

Стаж: 1 год

Сообщений: 8

кто-нибудь срочно встаньте на раздачу!

Создавать темы 20-Дек-2016 15:37

[Профиль]  [ЛС] 
Показать сообщения:    
Ответить на тему

Текущее время: 17-Авг 02:40

Часовой пояс: UTC + 5



Вы не можете начинать темы
Вы не можете отвечать на сообщения
Вы не можете редактировать свои сообщения
Вы не можете удалять свои сообщения
Вы не можете голосовать в опросах
Вы не можете прикреплять файлы к сообщениям
Вы не можете скачивать файлы