Вадим Запорожцев 3 фильма: Хатха Йога; Крия Йога; Тантра Крия Йога [обучающее видео, DVDRip [2003 г.]

Ответить на тему
 

DeathRevolution ®

Стаж: 5 лет 9 месяцев

Сообщений: 16

Симпатии: 1

Вадим Запорожцев 3 фильма:
Хатха Йога; Крия Йога; Тантра Крия Йога

Год выпуска: 2003
Страна: Россия
Жанр: обучающее видео
Продолжительность: 1:19:04 30:53 1:15:07
Язык: русский
Описание: Великолепные фильмы о динамической йоге!!!
Фильм "Хатха Йога Самоучитель"
В этом фильме дана теория и практика, необходимые, чтобы выполнять упражнения Хатха Йоги дома. Видеофильм по йоге является учебным пособием по практике Хатха Йоги, дошедшей до нас с древнейших времен. Вы наглядно увидите, как выполняются многие упражнения йоги (асаны), которые, как говорит древняя традиция, сжигают отрицательную карму человека. Видеофильм снят на основе редкого манускрипта по Хатха Йоге. В первой части видеофильма излагаются основные принципы выполнения упражнений йоги. Во второй части показано непосредственно выполнение упражнений.
Качество: DVDRip
Видео: 332 Kbps, 25.000 fps, разрешение 320*240 (4:3), FLV1
Аудио: 32 Kbps, 44100 Hz, 2 каналов, 0x55 = Mpeg-1 audio Layer 3 (MP3)
MI
Самоучитель\Hatha_Yoga_film.flv
Format : Flash Video
File size : 188 MiB
Duration : 1h 19mn
Overall bit rate mode : Variable
Overall bit rate : 332 Kbps
Video
Format : Sorenson Spark
Codec ID : 2
Duration : 1h 19mn
Width : 320 pixels
Height : 240 pixels
Display aspect ratio : 4:3
Frame rate mode : Constant
Frame rate : 25.000 fps
Bit depth : 8 bits
Audio
Format : MPEG Audio
Format version : Version 1
Format profile : Layer 3
Mode : Joint stereo
Codec ID : 2
Codec ID/Hint : MP3
Duration : 1h 19mn
Bit rate mode : Variable
Channel(s) : 2 channels
Sampling rate : 44.1 KHz
Фильм "Крия Йога Самоучитель"
В этом фильме дана теория и практика, необходимые, чтобы выполнять упражнения крия йоги дома. Крия Йога - динамическая йога действия! Это йога, очищающая тело и дающая спокойствие разуму. Из Крия Йоги возникли многие виды гимнастик, растяжек, фитнес, аэробика. Видеофильм по йоге является самоучителем по практике динамической йоги. В первой части видеофильма вы познакомитесь с основными принципами этой йоги. В качестве теории приведены описания упражнений йоги в виде афоризмов из древнего трактата по Крия Йоге, а также общая теория по выполнению упражнений йоги. Во второй части показано непосредственное выполнение упражнений йоги и происходящие при этом процессы теле человека.
Качество: DVDRip
Видео: 330 Kbps, 29,970 fps, разрешение 300*240
Аудио: 108 Kbps, 44100 Hz, 2 каналов
MI
Самоучитель\KriyaYogaavi.mp4
Format : MPEG-4
Format profile : Base Media
Codec ID : isom
File size : 97.4 MiB
Duration : 30mn 53s
Overall bit rate mode : Variable
Overall bit rate : 441 Kbps
Movie name : 8_KriyaYoga.avi
Encoded date : UTC 2006-11-06 16:39:00
Tagged date : UTC 2006-11-06 16:39:00
Video
ID : 1
Format : AVC
Format/Info : Advanced Video Codec
Format profile : [email protected]
Format settings, CABAC : No
Format settings, ReFrames : 1 frame
Format settings, GOP : M=1, N=60
Codec ID : avc1
Codec ID/Info : Advanced Video Coding
Duration : 30mn 53s
Bit rate : 330 Kbps
Maximum bit rate : 795 Kbps
Width : 300 pixels
Height : 240 pixels
Display aspect ratio : 5:4
Frame rate mode : Constant
Frame rate : 29.970 fps
Color space : YUV
Chroma subsampling : 4:2:0
Bit depth : 8 bits
Scan type : Progressive
Bits/(Pixel*Frame) : 0.153
Stream size : 72.9 MiB (75%)
Writing library : x264 core 44 svn-440
Encoded date : UTC 2006-11-06 16:39:00
Tagged date : UTC 2006-11-06 16:39:08
Audio
ID : 2
Format : AAC
Format/Info : Advanced Audio Codec
Format profile : LC
Codec ID : 40
Duration : 30mn 53s
Bit rate mode : Variable
Bit rate : 108 Kbps
Maximum bit rate : 141 Kbps
Channel(s) : 2 channels
Channel positions : Front: L R
Sampling rate : 44.1 KHz
Compression mode : Lossy
Stream size : 23.9 MiB (25%)
Encoded date : UTC 2006-11-06 16:39:04
Tagged date : UTC 2006-1
Фильм "Тантра Крия Йога Самоучитель"
Эта йога предназначена для обретения вами скрытых сил организма, здоровья, красоты и спокойствия. Эта йога введет вас в таинственный мир подсознательного. Просмотрев этот видеофильм по йоге, вы сможете практически овладеть упражнениями Тантра Крия Йоги. Вы узнаете всю теорию этой йоги, необходимую для практического выполнения упражнений. Вы сможете заниматься этой йогой у себя дома под вторую часть нашего видеофильма. Видеофильм одновременно предназначен как для тех, кто делает первые шаги в этой йоге, так и для тех, кто уже достаточно искусен в ней. Если вы делаете только первые шаги на пути йоги и не разбираетесь еще в философии этой науки, вы можете делать эту йогу просто для хорошего самочувствия. Показано выполнение всех упражнений. Дана вся необходимая теория. Вы сможете заниматься вместе с фильмом.
Качество: DVDRip
Видео: 330 Kbps, 29.970 fps, разрешение 300*240
Аудио: 108 Kbps, 44.1 KHz, 2 канала

MI
Video
ID : 1
Format : AVC
Format/Info : Advanced Video Codec
Format profile : [email protected]
Format settings, CABAC : No
Format settings, ReFrames : 1 frame
Format settings, GOP : M=1, N=60
Codec ID : avc1
Codec ID/Info : Advanced Video Coding
Duration : 30mn 53s
Bit rate : 330 Kbps
Maximum bit rate : 795 Kbps
Width : 300 pixels
Height : 240 pixels
Display aspect ratio : 5:4
Frame rate mode : Constant
Frame rate : 29.970 fps
Color space : YUV
Chroma subsampling : 4:2:0
Bit depth : 8 bits
Scan type : Progressive
Bits/(Pixel*Frame) : 0.153
Stream size : 72.9 MiB (75%)
Writing library : x264 core 44 svn-440
Encoding settings : cabac=0 / ref=1 / deblock=1:0:0 / analyse=0x1:0x31 / me=umh / subme=6 / brdo=0 / mixed_ref=0 / me_range=32 / chroma_me=1 / trellis=0 / 8x8dct=0 / cqm=0 / chroma_qp_offset=0 / slices=1 / nr=0 / bframes=0 / keyint=60 / keyint_min=25 / scenecut=40 / rc=2pass / bitrate=330 / ratetol=1.0 / rceq='blurCplx^(1-qComp)' / qcomp=0.60 / qpmin=10 / qpmax=38 / qpstep=2 / cplxblur=20.0 / qblur=0.5 / vbv_maxrate=700 / vbv_bufsize=350 / ip_ratio=1.40
Encoded date : UTC 2006-11-06 16:39:00
Tagged date : UTC 2006-11-06 16:39:08
Audio
ID : 2
Format : AAC
Format/Info : Advanced Audio Codec
Format profile : LC
Codec ID : 40
Duration : 30mn 53s
Bit rate mode : Variable
Bit rate : 108 Kbps
Maximum bit rate : 141 Kbps
Channel(s) : 2 channels
Channel positions : Front: L R
Sampling rate : 44.1 KHz
Compression mode : Lossy
Stream size : 23.9 MiB (25%)
Encoded date : UTC 2006-11-06 16:39:04
Tagged date : UTC 2006-11-06 16:39:08

Скриншоты






Последний раз редактировалось: DeathRevolution (2013-02-26 11:38), всего редактировалось 17 раз(а)

Создавать темы 10-Фев-2013 09:28

[Профиль]  [ЛС] 

Alsy483

Стаж: 4 года 8 месяцев

Сообщений: 27

Симпатии: 1

Запорожцев bj bj bj
Не вижу ничего смешного.....

Создавать темы 30-Мар-2013 01:07

[Профиль]  [ЛС] 

Alsy483

Стаж: 4 года 8 месяцев

Сообщений: 27

Симпатии: 1

Дайте пожалуйста скорости! Вообще нет раздачи, очень хочется скачать))

Создавать темы 30-Мар-2013 01:11

[Профиль]  [ЛС] 
Показать сообщения:    
Ответить на тему

Текущее время: 18-Ноя 17:18

Часовой пояс: UTC + 5



Вы не можете начинать темы
Вы не можете отвечать на сообщения
Вы не можете редактировать свои сообщения
Вы не можете удалять свои сообщения
Вы не можете голосовать в опросах
Вы не можете прикреплять файлы к сообщениям
Вы не можете скачивать файлы