Дочь Робин Гуда: Принцесса воров / Princess of Thieves (Питер Хьюит/Peter Hewitt) [2001 г., Боевик, приключения..., BDRip, 720p] MVO + Original (eng)

Ответить на тему
 

Robot-IX ®

Стаж: 5 лет 6 месяцев

Сообщений: 223

Симпатии: 9

Дочь Робин Гуда: Принцесса воров / Princess of Thieves-- Год выпуска: 2001
Страна: США
Студия: Granada Entertainment
Жанр: Боевик, приключения...
Продолжительность: 01:24:00
Перевод: Профессиональный (многоголосый, закадровый)
Оригинальная аудиодорожка: есть (английский)
Режиссёр: Питер Хьюит/Peter Hewitt
Сценарий: Робин Лернер/Robin Lerner
Продюссер: Крэйг МаНил/Craig McNeil, Джон Кауэн/Jon Cowan, Джофф Гриффит/Geoff Griffith...-В ролях: Ханна Крессвелл/Hannah Cresswell, Дэвид Баррасс/David Barrass, Малкольм МакДауэлл/Malcolm McDowell, Кира Найтли/Keira Knightley, Дель Синнотт/Del Synnott, Стюарт Уилсон/Stuart Wilson, Криспин Леттс/Crispin Letts, Роджер Эштон-Гриффитс/Roger Ashton-Griffiths, Джонатан Хайд/Jonathan Hyde, Адам Райан/Adam Ryan...
Описание:
Пока благородный Робин Гуд верно служит британскому трону, его дочь, очаровательная юная Гвин не желает сидеть дома. В тайне от отца она научилась метко стрелять из лука и крепко сидеть в седле, и теперь эти навыки сослужат ей верную службу.
После трагической смерти Ричарда Львиное Сердце коварный принц Джон бросает в тюрьму Робин Гуда и приказывает своим головорезам убить наследника престола принца Филиппа. Он намерен во что бы то ни стало завладеть короной, но его планы ловко сорвет отважная Гвин.
Переодевшись юношей, она вместе с Филиппом переживет удивительные и опасные приключения, чтобы проникнуть в логово подлых врагов, вызволить из плена отца и жестоко покарать злобного принца Джона.-Рейтинг:
kinopoisk.ru: 6.344 (878)
imdb.com: 5,6 (2 655)
MPAA: 0+
- для любой зрительской аудитории-Качество: BDRip
Формат: MKV
Видео кодек: H.264/AVC
Аудио кодек: AC-3
Видео: 1280x720, x264, Bitrate: 5 946 Kbps, Frame rate: 25.000 fps, Aspect ratio: 16/9
Аудио Russian: AC3 / 2.0ch / 48.0 KHz / 384 Kbps - Профессиональный (многоголосый, закадровый)
Аудио English: AC3 / 6ch / 48.0 KHz / 384 Kbps - Original

Media Info

General
Unique ID : 183176526543083392964903332597163691609 (0x89CE8408B44BA7679F15F0900C890E59)
Complete name : D:\Torent\Princess.of.Thieves.2001.BDRip.720p.mkv
Format : Matroska
Format version : Version 4 / Version 2
File size : 3.94 GiB
Duration : 1h 24mn
Overall bit rate : 6 709 Kbps
Encoded date : UTC 2013-02-10 16:05:16
Writing application : mkvmerge v6.0.0 ('Coming Up For Air') built on Jan 20 2013 09:52:00
Writing library : libebml v1.3.0 + libmatroska v1.4.0
Video
ID : 1
Format : AVC
Format/Info : Advanced Video Codec
Format profile : [email protected]
Format settings, CABAC : Yes
Format settings, ReFrames : 5 frames
Codec ID : V_MPEG4/ISO/AVC
Duration : 1h 24mn
Bit rate : 5 946 Kbps
Width : 1 280 pixels
Height : 720 pixels
Display aspect ratio : 16:9
Frame rate : 25.000 fps
Color space : YUV
Chroma subsampling : 4:2:0
Bit depth : 8 bits
Scan type : Progressive
Bits/(Pixel*Frame) : 0.258
Stream size : 3.41 GiB (87%)
Title : Princess.of.Thieves.2001.BDRip.720p
Writing library : x264 core 76 r1271 496d79d
Encoding settings : cabac=1 / ref=5 / deblock=1:0:0 / analyse=0x3:0x133 / me=umh / subme=7 / psy=1 / psy_rd=1.0:0.0 / mixed_ref=1 / me_range=16 / chroma_me=1 / trellis=1 / 8x8dct=1 / cqm=0 / deadzone=21,11 / chroma_qp_offset=-2 / threads=6 / nr=0 / decimate=1 / mbaff=0 / bframes=3 / b_pyramid=0 / b_adapt=1 / b_bias=0 / direct=1 / wpredb=1 / keyint=250 / keyint_min=25 / scenecut=40 / rc_lookahead=40 / rc=2pass / mbtree=1 / bitrate=5946 / ratetol=1.0 / qcomp=0.60 / qpmin=10 / qpmax=51 / qpstep=4 / cplxblur=20.0 / qblur=0.5 / ip_ratio=1.40 / aq=1:1.00
Language : English
Default : Yes
Forced : No
Audio #1
ID : 2
Format : AC-3
Format/Info : Audio Coding 3
Mode extension : CM (complete main)
Format settings, Endianness : Big
Codec ID : A_AC3
Duration : 1h 24mn
Bit rate mode : Constant
Bit rate : 384 Kbps
Channel(s) : 2 channels
Channel positions : Front: L R
Sampling rate : 48.0 KHz
Bit depth : 16 bits
Compression mode : Lossy
Delay relative to video : 32ms
Stream size : 231 MiB (6%)
Title : MVO
Language : Russian
Default : Yes
Forced : No
Audio #2
ID : 3
Format : AC-3
Format/Info : Audio Coding 3
Mode extension : CM (complete main)
Format settings, Endianness : Big
Codec ID : A_AC3
Duration : 1h 24mn
Bit rate mode : Constant
Bit rate : 384 Kbps
Channel(s) : 6 channels
Channel positions : Front: L C R, Side: L R, LFE
Sampling rate : 48.0 KHz
Bit depth : 16 bits
Compression mode : Lossy
Stream size : 231 MiB (6%)
Title : Original
Language : English
Default : No
Forced : No

Скриншоты

Создавать темы 10-Фев-2013 22:15

[Профиль]  [ЛС] 

caomacao

Стаж: 6 лет 5 месяцев

Сообщений: 40

Симпатии: 10

интересно создатели фильма вообще книгу то читали??)))я все понимаю вольная трактовка но все таки...

Создавать темы 11-Фев-2013 00:09

[Профиль]  [ЛС] 

Robot-IX ®

Стаж: 5 лет 6 месяцев

Сообщений: 223

Симпатии: 9

интересно создатели фильма вообще книгу то читали??)))я все понимаю вольная трактовка но все таки...
верно заметил! )) но и не заметил другого...
в том что фильм снят не по сюжету книги и сценарий написан отнюдь
не автором книги а потому расхождения и превраки, но тем и интересней....))
ведь снять по книге дело "не благодарное" люди всё равно скажут
а вот книгу когда читаешь интересней ))

Создавать темы 11-Фев-2013 01:26

[Профиль]  [ЛС] 

Robot-IX ®

Стаж: 5 лет 6 месяцев

Сообщений: 223

Симпатии: 9

Posthuman, РЕАЛЬНО огромное спасс.. за помощь в раздаче!


Последний раз редактировалось: Robot-IX (2013-04-18 22:41), всего редактировалось 1 раз

Создавать темы 11-Фев-2013 16:33

[Профиль]  [ЛС] 

bek3d

Стаж: 6 лет 4 месяца

Сообщений: 8

спс

Создавать темы 12-Фев-2013 09:15

[Профиль]  [ЛС] 
Показать сообщения:    
Ответить на тему

Текущее время: 23-Окт 20:27

Часовой пояс: UTC + 5



Вы не можете начинать темы
Вы не можете отвечать на сообщения
Вы не можете редактировать свои сообщения
Вы не можете удалять свои сообщения
Вы не можете голосовать в опросах
Вы не можете прикреплять файлы к сообщениям
Вы не можете скачивать файлы