Снайпер: Оружие возмездия (Александр Ефремов) [2010 г., драмма,военный, DVD]

Ответить на тему
 

vla2 ®

Стаж: 5 лет 2 месяца

Сообщений: 20

Снайпер: Оружие возмездия
Год выпуска: 2010
Жанр: драмма,военный
Продолжительность: 2 часа 39 мин 18 сек
Режиссер: Александр Ефремов
Страна:Россия,Белоруссия
Язык:Русский
В ролях: Дмитрий Певцов — Старший лейтенант/майор Яшин
Мария Миронова — Мария Гусева, ассистентка инженера Михайловского
Алина Сергеева — Алеся Микульчик
Сергей Беляев — Осипов, майор госбезопасности
Белорусские актёры:
Анна Хитрик — Берта, немецкий снайпер
Борис Гергалов — Дядя Микола, снайпер из группы Яшина
Павел Южаков-Харланчук — Борис Дерюгин, снайпер из группы Яшина
Оксана Лесная — фрау Марта, экономка, мать погибшей жены Кляйста - Анны, похожей на Марию
Иван Мацкевич — генерал
Польские актёры:
Павел Делонг — Инженер Михайловский
Немецкие актёры:
Йоахим Пауль Ассбек — Карл Кляйст
Литовские актёры:
Владас Багдонас — Отто Хамерболь, немецкий инженер-ракетчик, конструктор ФАУ-2
Описание: Сталинград, 1942 год. Со стороны советских войск успешно действует группа из девяти снайперов, среди которых выделяются их командир - старший лейтенат Яшин (актёр Дмитрий Певцов) и снайпер Алеся (актриса Алина Сергеева), прозванная немцами «Ведьмой». Против них немцы отправляют своего снайпера - капитана Карла Кляйста. Немецкий снайпер подстраивает ловушку, в которой гибнет Алеся, а Яшин получает ранение пулей, помеченной буквами «KK».
По окончании Великой Отечественной войны Яшин, уже став майором, становится комендантом небольшого немецкого города. Там, в замке, обнаруживаются секретные немецкие чертежи ракет «Фау». В поисках ракетного оружия Германии в городок приезжает инженер Михайловский. Однако в замке, который готовится к взрыву, чертежи охраняет группа снайперов под руководством Карла Кляйста, застреливших много советских военнослужащих и захвативших в плен инженера. Из убитого советского офицера извлекли пулю с тем же клеймом — «KK», как в той пуле, которую до сих пор хранит при себе Яшин.
Яшин вызал троих солдат из своей снайперской группы, которые погибают в замке, отомстил за Алесю и ликвидировал немецкий отряд
Качество: DVD
Формат: MPEG-PS
Видео кодек:MPEG2
Аудио кодек: MPEG Audio
Видео: 352x288,25.000 fps,661 Kbps
Аудио: MPEG Audio,112 Kbps,2 channels,48.0 KHz

МедиаИнфо

Format : MPEG-PS
File size : 899 MiB
Duration : 2h 39mn
Overall bit rate mode : Variable
Overall bit rate : 789 Kbps
Video
ID : 224 (0xE0)
Format : MPEG Video
Format version : Version 2
Format profile : [email protected]
Format settings, BVOP : Yes
Format settings, Matrix : Custom
Format settings, GOP : Variable
Duration : 2h 39mn
Bit rate mode : Variable
Bit rate : 661 Kbps
Maximum bit rate : 8 172 Kbps
Width : 352 pixels
Height : 288 pixels
Display aspect ratio : 4:3
Frame rate : 25.000 fps
Standard : PAL
Color space : YUV
Chroma subsampling : 4:2:0
Bit depth : 8 bits
Scan type : Progressive
Compression mode : Lossy
Bits/(Pixel*Frame) : 0.261
Stream size : 753 MiB (84%)
Color primaries : BT.601 PAL
Transfer characteristics : BT.470 System B, BT.470 System G
Matrix coefficients : BT.601
Audio
ID : 192 (0xC0)
Format : MPEG Audio
Format version : Version 1
Format profile : Layer 2
Duration : 2h 39mn
Bit rate mode : Constant
Bit rate : 112 Kbps
Channel(s) : 2 channels
Sampling rate : 48.0 KHz
Compression mode : Lossy
Stream size : 128 MiB (14%)

Скриншоты







Последний раз редактировалось: vla2 (2013-02-14 20:31), всего редактировалось 2 раз(а)

Создавать темы 11-Фев-2013 08:45

[Профиль]  [ЛС] 

vla2 ®

Стаж: 5 лет 2 месяца

Сообщений: 20

может пришло время проверить???

Создавать темы 12-Фев-2013 18:39

[Профиль]  [ЛС] 

victor0778

Стаж: 6 лет 9 месяцев

Сообщений: 1670

Симпатии: 142

vla2,
качество DVD
формат MPEG-PS
Видео кодек: MPEG2

Создавать темы 14-Фев-2013 02:11

[Профиль]  [ЛС] 

The_HiDDeN

Стаж: 5 лет 1 месяц

Сообщений: 23

13ч качаю уже, тока 34.1% скачал((

Создавать темы 11-Апр-2013 18:42

[Профиль]  [ЛС] 
Показать сообщения:    
Ответить на тему

Текущее время: 18-Ноя 22:56

Часовой пояс: UTC + 5



Вы не можете начинать темы
Вы не можете отвечать на сообщения
Вы не можете редактировать свои сообщения
Вы не можете удалять свои сообщения
Вы не можете голосовать в опросах
Вы не можете прикреплять файлы к сообщениям
Вы не можете скачивать файлы