Холодное лето пятьдесят третьего (Александр Прошкин) [1988 г., боевик, драма, криминал, DVDRip]

Ответить на тему
 

rush87 ®

Стаж: 5 лет 5 месяцев

Сообщений: 10

Симпатии: 4

Холодное лето пятьдесят третьего- Год выпуска: 1988
Жанр: боевик, драма, криминал
Продолжительность: 01:36:04-Режиссер: Александр Прошкин-В ролях: Валерий Приемыхов, Анатолий Папанов, Виктор Степанов, Нина Усатова, Зоя Буряк, Юрий Кузнецов, Владимир Кашпур, Сергей Власов, Борис Плотников, Виктор Косых и др.-Описание: Действие фильма происходит летом 1953 года, вскоре после ареста Лаврентия Берии (арестован 26 июня 1953 года). 27 марта 1953 года, через три недели после смерти Сталина, Президиум Верховного Совета СССР принимает Указ «Об амнистии». Из лагерей освобождаются десятки тысяч уголовников. В стране резко вырастает уровень преступности.-В этом фильме, удостоенном Государственной премии, сыграл свою последнюю кинематографическую роль замечательный артист Анатолий Папанов.-Качество: DVDRip
Формат: AVI
Видео кодек: XviD, 640x480, 1 575 Kbps
Аудио кодек: AC3, 6 channels, 448 Kbps

Подробнее о фильме

В глухой северной деревне влачат существование двое политических ссыльных: Копалыч (бывший главный инженер Николай Павлович Старобогатов, «английский шпион») и Лузга (капитан полковой разведки Сергей Басаргин, осуждённый за недолгое пребывание в немецком плену). Из города возвращается участковый милиционер Манков, принимавший участие в облаве на уголовников. Шестерым бандитам удалось уйти. Они проникают в факторию и захватывают управляющего Ивана Зотова. Глава шайки «вор в законе» Барон опасается штурмовать дом Манкова, вооружённого автоматом ППШ, и решает его выманить. Зотов просит пришедшую за керосином старуху передать Манкову, чтобы тот зашёл, тайком пишет на бумажке просьбу о помощи и закрывает ею бутылку с керосином. Однако бабка по пути выбрасывает записку.
Манков подходит к фактории, у бандита Шурупа не выдерживают нервы и он стреляет в милиционера. Истекающий кровью Манков спешит к дому, но у самой его двери падает, сражённый пулей старого бандита Михалыча. Уголовники захватывают деревню и пристань, запирают всех жителей на складе, а ссыльным велят похоронить Манкова. Мимо деревни проплывает пароход с вооружёнными солдатами на борту, но Барон выгоняет на пристань запуганного начальника рейда, и пассажиры парохода не обращают внимания на отчаянные призывы немой кухарки Лидии Матвеевны.
Лидия выпускает свою дочку Шуру из убежища, та убегает в лес. Молодой уголовник Витёк догоняет её и пытается изнасиловать. Верно оценив момент, Лузга закалывает Витька и завладевает его пистолетом. Барон посылает украинца Муху и старого Михалыча на поиски. Михалыч встречает Старобогатова, разговаривает с ним и стреляет из обреза в подкравшегося Лузгу, но только ранит его и погибает от ответного выстрела Басаргина. Затем Лузга и Копалыч натыкаются в лесу на Муху, который заставляет Басаргина бросить обрез, однако тот убивает Муху выстрелом в лоб из пистолета.
Барон, Крюк и Шуруп идут к лесу, Лузга устраивает засаду. Копалыч должен выстрелить из-за укрытия, отвлекая внимание бандитов. Его пуля валит Барона, но Крюк прошивает очередью вставшего в полный рост Копалыча. Лузга убивает Крюка и расстреливает уплывающего на лодке Шурупа. Зотов и Фадеич выпускают пленных. Оказавшийся лишь раненым Барон ночью душит Шуру. Безоружный Лузга, которому начальник рейда отказался выдать отобранное у бандитов оружие, бросается под пули Барона и топит преступника в реке.
Прошло два года. Приехавший в Москву под праздник 7 ноября 1955 года Басаргин находит семью Старобогатова, передаёт вдове его личные вещи и коротко общается с сыном, сообщая ему о невиновности отца. Сын пытается перед Басаргиным оправдаться за то, что в 1930-е годы отказался от отца. После неприятного разговора Басаргин уходит по осеннему бульвару вдаль…

MI

Format : AVI
Format/Info : Audio Video Interleave
File size : 1.36 GiB
Duration : 1h 36mn
Overall bit rate : 2 030 Kbps
Writing application : VirtualDubMod 1.5.4.1 (build 2178/release)
Copyright : DVDRip_by_berger007
Video
ID : 0
Format : MPEG-4 Visual
Format profile : Advanced [email protected]
Format settings, BVOP : 1
Format settings, QPel : No
Format settings, GMC : No warppoints
Format settings, Matrix : Custom
Codec ID : XVID
Codec ID/Hint : XviD
Duration : 1h 36mn
Bit rate : 1 575 Kbps
Width : 640 pixels
Height : 480 pixels
Display aspect ratio : 4:3
Frame rate : 25.000 fps
Color space : YUV
Chroma subsampling : 4:2:0
Bit depth : 8 bits
Scan type : Progressive
Compression mode : Lossy
Bits/(Pixel*Frame) : 0.205
Stream size : 1.06 GiB (78%)
Writing library : XviD 1.2.0.dev45 (UTC 2006-07-10)
Audio
ID : 1
Format : AC-3
Format/Info : Audio Coding 3
Mode extension : CM (complete main)
Codec ID : 2000
Duration : 1h 36mn
Bit rate mode : Constant
Bit rate : 448 Kbps
Channel(s) : 6 channels
Channel positions : Front: L C R, Side: L R, LFE
Sampling rate : 48.0 KHz
Bit depth : 16 bits
Compression mode : Lossy
Stream size : 308 MiB (22%)
Alignment : Split accross interleaves
Interleave, duration : 96 ms (2.40 video frames)
Interleave, preload duration : 96 ms

Скриншоты











Последний раз редактировалось: rush87 (2013-02-12 20:31), всего редактировалось 5 раз(а)

Создавать темы 12-Фев-2013 19:58

[Профиль]  [ЛС] 

Mixer City

Стаж: 6 лет 8 месяцев

Сообщений: 754

Симпатии: 63

rush87, дооформил за тебя, запоминай изменения...

Создавать темы 12-Фев-2013 20:30

[Профиль]  [ЛС] 

sawa

Стаж: 5 лет 7 месяцев

Сообщений: 16

Симпатии: 1

кто то раздает?

Создавать темы 05-Сен-2016 18:19

[Профиль]  [ЛС] 
Показать сообщения:    
Ответить на тему

Текущее время: 20-Сен 23:27

Часовой пояс: UTC + 5



Вы не можете начинать темы
Вы не можете отвечать на сообщения
Вы не можете редактировать свои сообщения
Вы не можете удалять свои сообщения
Вы не можете голосовать в опросах
Вы не можете прикреплять файлы к сообщениям
Вы не можете скачивать файлы