13 (Тринадцать) / 13 (Thirteen) (Гела Баблуани) [2010 г., Драма, Триллер, BDRip 720p]

Ответить на тему
 

novex ®

Стаж: 4 года 10 месяцев

Сообщений: 26

Симпатии: 2

13 (Тринадцать) / 13 (Thirteen)
Год выпуска: 2010
Страна: США
Жанр: Драма, Триллер
Продолжительность: 01:37:16
Перевод: Профессиональный (полное дублирование)
Режиссер: Гела Баблуани
В ролях: Джейсон Стэтхэм, Микки Рурк, Фифти Сент, Рэй Уинстон, Александр Скарсгард, Эммануэль Шрики, Майкл Шэннон, Гэби Хоффманн, Наташа Лионни, Дэвид Зайас
Описание: Главный герой, молодой и наивный Винс, случайно узнает быстрый способ разбогатеть. Плевое дело — в точности выполнить инструкции, которые придут по почте в полосатом конверте. После того, как предполагаемый получатель письма умирает от сердечного приступа, парень решается на авантюру. Он выдает себя за покойного, не подозревая, что ввязывается в смертельно опасную игру. В погоне за легкими деньгами герой попадает на подпольный тотализатор по русской рулетке. Ему придется спустить курок — из 13 человек выживут трое.
Доп. информация: Это история о судьбе, счастливом случае и утрате юношеских иллюзий.
Возрастные ограничения (лет): 16
Качество: BDRip 720p
Формат: MKV
Видео кодек: H264/AVC
[b]Аудио кодек:
AC3
Видео: 1280x544, 23.976 fps, 2 706 Kbps
Аудио: 48000 Hz, 6 ch, 384 kbps

Медия инфо

Format : Matroska
Format version : Version 2
File size : 2.14 GiB
Duration : 1h 37mn
Overall bit rate : 3 153 Kbps
Writing application : XviD4PSP 6.0 / 53.6.0
Writing library : XviD4PSP 6.0 / 53.6.0
Video
ID : 1
Format : AVC
Format/Info : Advanced Video Codec
Format profile : [email protected]
Format settings, CABAC : Yes
Format settings, ReFrames : 3 frames
Codec ID : V_MPEG4/ISO/AVC
Duration : 1h 37mn
Bit rate : 2 706 Kbps
Nominal bit rate : 3 000 Kbps
Width : 1 280 pixels
Height : 544 pixels
Display aspect ratio : 2.35:1
Frame rate mode : Constant
Frame rate : 23.976 fps
Color space : YUV
Chroma subsampling : 4:2:0
Bit depth : 8 bits
Scan type : Progressive
Bits/(Pixel*Frame) : 0.162
Stream size : 1.84 GiB (86%)
Writing library : x264 core 116 r2019M 9cc407d
Default : Yes
Forced : No
Audio
ID : 2
Format : AC-3
Format/Info : Audio Coding 3
Mode extension : CM (complete main)
Format settings, Endianness : Big
Codec ID : A_AC3
Duration : 1h 37mn
Bit rate mode : Constant
Bit rate : 384 Kbps
Channel(s) : 6 channels
Channel positions : Front: L C R, Side: L R, LFE
Sampling rate : 48.0 KHz
Bit depth : 16 bits
Compression mode : Lossy
Stream size : 267 MiB (12%)
Default : Yes
Forced : No

Скриншоты





Последний раз редактировалось: novex (2013-02-12 21:27), всего редактировалось 1 раз

Создавать темы 12-Фев-2013 21:09

[Профиль]  [ЛС] 

Топик был перенесен из форума Фильмы за 2010 в форум HD-AVC

Mixer City

Создавать темы 12-Фев-2013 21:24

 

Kubaev_Muhiddin

Стаж: 6 лет 9 месяцев

Сообщений: 104

Симпатии: 34

Газуй! novex,

Создавать темы 14-Фев-2013 02:22

[Профиль]  [ЛС] 

sony007

Стаж: 4 года 9 месяцев

Сообщений: 9

а можно раздачу

Создавать темы 13-Мар-2013 23:27

[Профиль]  [ЛС] 
Показать сообщения:    
Ответить на тему

Текущее время: 20-Ноя 20:29

Часовой пояс: UTC + 5



Вы не можете начинать темы
Вы не можете отвечать на сообщения
Вы не можете редактировать свои сообщения
Вы не можете удалять свои сообщения
Вы не можете голосовать в опросах
Вы не можете прикреплять файлы к сообщениям
Вы не можете скачивать файлы