Война / War (Филлип Дж. Этвелл) [2007 г., Боевик, Криминал, Триллер, BDRip]

Ответить на тему
 

novex ®

Стаж: 4 года 7 месяцев

Сообщений: 26

Симпатии: 2

Война / War

Год выпуска: 2007
Страна: США
Жанр: Боевик, Криминал, Триллер
Продолжительность: 01:43:08
Перевод: Профессиональный (полное дублирование)
Режиссер: Филлип Дж. Этвелл
В ролях:Джет Ли, Джейсон Стэйтем, Джон Лоун, Девон Аоки, Луис Гузман, Сол Рубинек, Рё Исибаси, Санг Кенг, Мэтью Ст. Патрик, Надин Веласкес

Описание
:
В мире, которым правит страх, только правосудие спасает жизни. На счету агента ФБР Кроуфорда и его напарника немало обезвреженных бандитов. Но справедливость и закон оказались бессильны, когда одержимый убийца объявил им войну. С этого момента жизнь Кроуфорда превращается в бесконечную игру со смертью, захватывающую и жестокую. Игру, где жизнь не стоит ничего, а бывшие друзья становятся заклятыми врагами

Качество: BDRip
Формат: MKV
Видео кодек: V MPEG4/ISO/AVC
Аудио кодек:AC3
Видео: MPEG4 Video (H264) 1280x534 (256:109) 23.976fps
Аудио: Audio: Dolby AC3 48000Hz 6ch

Медия инфо

Format : Matroska
Format version : Version 2
File size : 2.15 GiB
Duration : 1h 43mn
Overall bit rate mode : Variable
Overall bit rate : 2 990 Kbps
Movie name : Rip by Stalone [NOLIMITS-TEAM.RU]
Encoded date : UTC 2010-12-04 06:57:27
Writing application : mkvmerge v3.2.0 ('Beginnings') built on Feb 12 2010 16:46:17
Writing library : libebml v0.7.9 + libmatroska v0.8.1
Video
ID : 1
Format : AVC
Format/Info : Advanced Video Codec
Format profile : [email protected]
Format settings, CABAC : Yes
Format settings, ReFrames : 3 frames
Codec ID : V_MPEG4/ISO/AVC
Duration : 1h 43mn
Bit rate mode : Variable
Bit rate : 2 113 Kbps
Maximum bit rate : 17.5 Mbps
Width : 1 280 pixels
Height : 534 pixels
Display aspect ratio : 2.35:1
Original display aspect ratio : 2.40:1
Frame rate mode : Constant
Frame rate : 23.976 fps
Color space : YUV
Chroma subsampling : 4:2:0
Bit depth : 8 bits
Scan type : Progressive
Bits/(Pixel*Frame) : 0.129
Stream size : 1.47 GiB (68%)
Title : Война
Writing library : x264 core 108 r1788 c764e29
Language : English
Default : Yes
Forced : No
Audio #1
ID : 2
Format : AC-3
Format/Info : Audio Coding 3
Mode extension : CM (complete main)
Format settings, Endianness : Big
Codec ID : A_AC3
Duration : 1h 43mn
Bit rate mode : Constant
Bit rate : 448 Kbps
Channel(s) : 6 channels
Channel positions : Front: L C R, Side: L R, LFE
Sampling rate : 48.0 KHz
Bit depth : 16 bits
Compression mode : Lossy
Stream size : 330 MiB (15%)
Title : русский дублированный
Language : Russian
Default : Yes
Forced : No
Audio #2
ID : 3
Format : AC-3
Format/Info : Audio Coding 3
Mode extension : CM (complete main)
Format settings, Endianness : Big
Codec ID : A_AC3
Duration : 1h 43mn
Bit rate mode : Constant
Bit rate : 448 Kbps
Channel(s) : 6 channels
Channel positions : Front: L C R, Side: L R, LFE
Sampling rate : 48.0 KHz
Bit depth : 16 bits
Compression mode : Lossy
Stream size : 330 MiB (15%)
Title : русский многоголосый закадровый (LostFilm)
Language : Russian
Default : No
Forced : No

Скриншоты

Создавать темы 12-Фев-2013 23:31

[Профиль]  [ЛС] 

Kubaev_Muhiddin

Стаж: 6 лет 6 месяцев

Сообщений: 104

Симпатии: 34

Газуй novex,

Создавать темы 14-Фев-2013 02:19

[Профиль]  [ЛС] 

MaHbl4

Стаж: 4 года 2 месяца

Сообщений: 34

++++

Создавать темы 14-Июл-2013 22:24

[Профиль]  [ЛС] 
Показать сообщения:    
Ответить на тему

Текущее время: 17-Авг 13:08

Часовой пояс: UTC + 5



Вы не можете начинать темы
Вы не можете отвечать на сообщения
Вы не можете редактировать свои сообщения
Вы не можете удалять свои сообщения
Вы не можете голосовать в опросах
Вы не можете прикреплять файлы к сообщениям
Вы не можете скачивать файлы