Клуб Винкс / Winx Club / Сезон: 5 cерии: 1-26 (26) (Иджинио Страффи / Iginio Straffi) [2012 г., Мультсериал, Анимация, Приключения, Фэнтези, WEB-DLRip, SATRip] DUB

Страницы :  1, 2  След.

Ответить на тему
 

ne0d1n ®

Стаж: 7 лет

Сообщений: 64

Симпатии: 14

Клуб Винкс / Winx Club
Год выпуска: 2012
Страна: Италия \ США
Жанр: Мультсериал, Анимация, Приключения, Фэнтези
Продолжительность: 23:40
Перевод: Любительский (Дублированный)
Режиссер: Иджинио Страффи / Iginio Straffi
Роли озвучивали: Группа Magic on Russian with You
Внимание! Озвучка любительская, отличается от первых 4-х сезонов, но достаточно качественная.
Описание: Магия вернулась на Землю. Казалось бы можно жить да поживать припеваючи, но тогда это была бы совсем другая история. А у Винкс очередные новые враги, а также забытые старые. Так начинается новое приключение любимых многими фей! Их ждут тернистые испытания судьбы, волшебные встречи и большие разочарования!
Релиз группа: RiperAM и Magic on Russian with You
Исходник любезно предоставлен -=DeMoH=-
VHQ.SATRip со спутникового канала RAI2
Исходник любезно предоставлен Хотт@быч
Переводчик: RoXy-SheYn
Редактор: DJ Luna
Роли дублировали: DJ Luna, Lanita, SP_Fiore, HappyKsu, D1abl093, -=DeMoH=-, *theklavist*
Звукорежиссеры: TRAY_MAX, -=DeMoH=-
Качество: WEB-DLRip
Формат: AVI
Видео кодек: XviD
Аудио кодек: AC3
Видео: Xvid 720x400 25fps 1500kbps
Аудио РУС: Dolby AC3 48000Hz stereo 192kbps
Аудио ИТА: Dolby AC3 48000Hz stereo 192kbps

Список серий

01. Утечка
02. Месть Тританнуса
03. Возращение в Алфею
04. Книга Сиреникс
05. Лило
06. Сила Гармоникса
07. Сияющие Ракушки
08. Секрет рубинового рифа
09. Камень Сострадания
10. Рождество в Алфее
11. Проделки Трикс
12. Испытание на Смелость
13. Сиреникс

Скриншоты



MI

General
Complete name                            : WinX_s05\Winx.Club.S05E08.Secret.of.the.Ruby.Reef.WEBDLRip.HWP.avi
Format                                   : AVI
Format/Info                              : Audio Video Interleave
File size                                : 316 MiB
Duration                                 : 23mn 46s
Overall bit rate                         : 1 857 Kbps
Writing application                      : VirtualDubModRus 1.5.10.1 (build 2439/release)
Writing library                          : VirtualDubMod build 2439/release
Video
ID                                       : 0
Format                                   : MPEG-4 Visual
Format profile                           : Advanced [email protected]
Format settings, BVOP                    : 2
Format settings, QPel                    : No
Format settings, GMC                     : No warppoints
Format settings, Matrix                  : Default (H.263)
Codec ID                                 : XVID
Codec ID/Hint                            : XviD
Duration                                 : 23mn 46s
Bit rate                                 : 1 653 Kbps
Width                                    : 720 pixels
Height                                   : 400 pixels
Display aspect ratio                     : 16:9
Frame rate                               : 29.970 fps
Color space                              : YUV
Chroma subsampling                       : 4:2:0
Bit depth                                : 8 bits
Scan type                                : Progressive
Compression mode                         : Lossy
Bits/(Pixel*Frame)                       : 0.191
Stream size                              : 281 MiB (89%)
Writing library                          : XviD 64
Audio
ID                                       : 1
Format                                   : AC-3
Format/Info                              : Audio Coding 3
Format profile                           : Dolby Digital
Mode extension                           : CM (complete main)
Format settings, Endianness              : Big
Codec ID                                 : 2000
Duration                                 : 23mn 46s
Bit rate mode                            : Constant
Bit rate                                 : 192 Kbps
Channel(s)                               : 2 channels
Channel positions                        : Front: L R
Sampling rate                            : 48.0 KHz
Bit depth                                : 16 bits
Compression mode                         : Lossy
Stream size                              : 32.6 MiB (10%)
Alignment                                : Split accross interleaves
Interleave, duration                     : 33 ms (1.00 video frame)
Interleave, preload duration             : 500 ms


Последний раз редактировалось: ne0d1n (2013-10-20 22:23), всего редактировалось 4 раз(а)

Создавать темы 13-Фев-2013 01:21

[Профиль]  [ЛС] 

ne0d1n ®

Стаж: 7 лет

Сообщений: 64

Симпатии: 14

первая часть 5-го сезона окончена, продолжение сезона будет только осенью.
Первые 4 сезона тут

Создавать темы 13-Фев-2013 01:26

[Профиль]  [ЛС] 

eldorado777

Стаж: 6 лет 11 месяцев

Сообщений: 118

Симпатии: 11

ne0d1n, можно скорости, а то за сутки качется 1-2%.

Создавать темы 23-Фев-2013 11:23

[Профиль]  [ЛС] 

avazavaz

Стаж: 7 лет 1 месяц

Сообщений: 5

Скоростии !!!!!!!!!
Раздавайте

Создавать темы 19-Мар-2013 18:51

[Профиль]  [ЛС] 

виктория

Стаж: 4 года 6 месяцев

Сообщений: 1

поддайте скорости пожалуйста! 10кб/c это же не скорость)))

Создавать темы 30-Мар-2013 21:16

[Профиль]  [ЛС] 

bonita2992

Стаж: 5 лет 9 месяцев

Сообщений: 3

pojaluista mojete dobavit ostalniye serii zaraniye spasibo

Создавать темы 10-Апр-2013 10:01

[Профиль]  [ЛС] 

avazavaz

Стаж: 7 лет 1 месяц

Сообщений: 5

Скоростные !!!!!!!!!
Раздавайте пожалуйста

Создавать темы 11-Май-2013 20:56

[Профиль]  [ЛС] 

Шерчик

Стаж: 4 года 11 месяцев

Сообщений: 14

Симпатии: 3

А вообще раздача будет .У меня красный цвет торрента ( 32,5 % ) и какой день стоит не двигается с места .

Создавать темы 18-Май-2013 06:24

[Профиль]  [ЛС] 

ne0d1n ®

Стаж: 7 лет

Сообщений: 64

Симпатии: 14

Качаю с мира 14-26 серии.
как скачаю - выложу

Создавать темы 19-Окт-2013 00:35

[Профиль]  [ЛС] 

ne0d1n ®

Стаж: 7 лет

Сообщений: 64

Симпатии: 14

Выложил 2-ю половину сезона. Перекачайте торрент файл

Создавать темы 20-Окт-2013 23:09

[Профиль]  [ЛС] 

SHAGGY

Стаж: 4 года 3 месяца

Сообщений: 9

Не думал что столько найдётся людей которые будут скачивать этот детский мультик...

Создавать темы 21-Окт-2013 01:02

[Профиль]  [ЛС] 

sevenst77

Стаж: 5 лет 9 месяцев

Сообщений: 40

Спасибки!У меня доча фанатка Винкс.

Создавать темы 21-Окт-2013 08:14

[Профиль]  [ЛС] 

kamillka

Стаж: 5 лет 9 месяцев

Сообщений: 13

Где раздача??? Стоит на 15% bw md

Создавать темы 27-Окт-2013 12:14

[Профиль]  [ЛС] 

sevenst77

Стаж: 5 лет 9 месяцев

Сообщений: 40

Автор дай скачать!Вообще нет

Создавать темы 29-Окт-2013 20:57

[Профиль]  [ЛС] 

skyangel92

Стаж: 5 лет 2 месяца

Сообщений: 6

А ТУТ ПОЛНЫЙ СЕЗОН? А ТО В СПИСКЕ СЕРИЙ ТОЛЬКО 13

Создавать темы 30-Июн-2014 19:28

[Профиль]  [ЛС] 
Показать сообщения:    
Ответить на тему

Текущее время: 23-Окт 15:03

Часовой пояс: UTC + 5



Вы не можете начинать темы
Вы не можете отвечать на сообщения
Вы не можете редактировать свои сообщения
Вы не можете удалять свои сообщения
Вы не можете голосовать в опросах
Вы не можете прикреплять файлы к сообщениям
Вы не можете скачивать файлы