[Бокс] David Haye vs Audley Harrison / Дэвид Хэй - Одли Харрисон [13.11.2010г., SKY sports 3D, HDTVrip 1080p]

Ответить на тему
 

ognetushitel ®

Стаж: 6 лет 9 месяцев

Сообщений: 6

David Haye vs Audley Harrison / Дэвид Хэй - Одли Харрисон Вид спорта: Бокс
Участники: Дэвид Хэй - Одли Харрисон
Дата/Год выпуска: 13.11.2010
Продолжительность: 00:28:11
Язык комментариев: Профессиональный (многоголосый)
Описание: Бой за звание чемпиона мира в супертяжелом весе по версии WBA
Доп. информация:Для просмотра понадобится 3D телевизор или стереоплеер, через него можно смотреть с любыми видами очков и стереомониторов.
________________________________________________________
Качество: HDTVrip
Формат: TS
Формат 3d: анаморфная горизонтальная стереопара / SideBySide
Порядок ракурсов: Параллельная пара
Видео кодек: x264
Аудио кодек: ac3
Видео: x264 1920x1080 25.00fps ~4mbit
Аудио: Dolby AC3 48000Hz 2ch 192 Kbps

Media Info

Format : Matroska
File size : 844 MiB
Duration : 28mn 11s
Overall bit rate : 4 186 Kbps
Encoded date : UTC 2010-11-25 04:21:44
Writing application : mkvmerge v4.3.0 ('Escape from the Island') built on Sep 5 2010 10:30:51
Writing library : libebml v1.0.0 + libmatroska v1.0.0
Video
ID : 1
Format : AVC
Format/Info : Advanced Video Codec
Format profile : [email protected]
Format settings, CABAC : Yes
Format settings, ReFrames : 4 frames
Muxing mode : Container [email protected]
Codec ID : V_MPEG4/ISO/AVC
Duration : 28mn 11s
Bit rate : 4 000 Kbps
Width : 1 920 pixels
Height : 1 080 pixels
Display aspect ratio : 16:9
Frame rate : 25.000 fps
Color space : YUV
Chroma subsampling : 4:2:0
Bit depth : 8 bits
Scan type : Progressive
Bits/(Pixel*Frame) : 0.077
Stream size : 789 MiB (93%)
Writing library : x264 core 105 r1724 b02df7b
Encoding settings : cabac=1 / ref=3 / deblock=1:0:0 / analyse=0x3:0x113 / me=hex / subme=7 / psy=1 / psy_rd=1.00:0.00 / mixed_ref=1 / me_range=16 / chroma_me=1 / trellis=1 / 8x8dct=1 / cqm=0 / deadzone=21,11 / fast_pskip=1 / chroma_qp_offset=-2 / threads=3 / sliced_threads=0 / nr=0 / decimate=1 / interlaced=0 / constrained_intra=0 / bframes=3 / b_pyramid=2 / b_adapt=1 / b_bias=0 / direct=1 / weightb=1 / open_gop=0 / weightp=2 / keyint=250 / keyint_min=25 / scenecut=40 / intra_refresh=0 / rc_lookahead=40 / rc=2pass / mbtree=1 / bitrate=4000 / ratetol=1.0 / qcomp=0.60 / qpmin=10 / qpmax=51 / qpstep=4 / cplxblur=20.0 / qblur=0.5 / ip_ratio=1.40 / aq=1:1.00
Audio
ID : 2
Format : AC-3
Format/Info : Audio Coding 3
Mode extension : ME (music and effects)
Codec ID : A_AC3
Duration : 28mn 11s
Bit rate mode : Constant
Bit rate : 192 Kbps
Channel(s) : 2 channels
Channel positions : Front: L R
Sampling rate : 48.0 KHz
Bit depth : 16 bits
Stream size : 38.7 MiB (5%)
Language : English

Cкриншоты





Последний раз редактировалось: ognetushitel (2013-04-15 21:11), всего редактировалось 2 раз(а)

Создавать темы 13-Фев-2013 19:20

[Профиль]  [ЛС] 

ognetushitel ®

Стаж: 6 лет 9 месяцев

Сообщений: 6

почему не проверити модеры

Создавать темы 15-Фев-2013 14:05

[Профиль]  [ЛС] 

ognetushitel ®

Стаж: 6 лет 9 месяцев

Сообщений: 6

что значить премодерация?

Создавать темы 16-Фев-2013 19:59

[Профиль]  [ЛС] 

fenom

Стаж: 3 года 9 месяцев

Сообщений: 8

дайте раздачу плизззз

Создавать темы 24-Янв-2014 21:43

[Профиль]  [ЛС] 
Показать сообщения:    
Ответить на тему

Текущее время: 20-Ноя 07:09

Часовой пояс: UTC + 5



Вы не можете начинать темы
Вы не можете отвечать на сообщения
Вы не можете редактировать свои сообщения
Вы не можете удалять свои сообщения
Вы не можете голосовать в опросах
Вы не можете прикреплять файлы к сообщениям
Вы не можете скачивать файлы