Video Games Awards 2012 / Премия видео игр 2012 [2012 г., ТВ-шоу, церемония вручения премии, TVRip]

Ответить на тему
 

Killer Bi ®

Стаж: 5 лет 7 месяцев

Сообщений: 77

Video Games Awards 2012 / Премия видео игр 2012
Год выпуска: 2012
Страна: USA
Жанр: ТВ-шоу, церемония вручения премии
Продолжительность: 1:25:01
Перевод: Отсутствует
Субтитры: Отсутствует
Описание: Video Games Awards ежегодная премия вручаемая за достижения в игровой индустрии.
Режиссер: Mark Burnett
В ролях: Samuel L Jackson, Zahary Levi, Jessica Alba, Jack Black, Linkin Park, Snoop Dog, Zoe Saldana.
Качество: TVRip
Формат: FLV
Видео кодек: Flash
Аудио кодек: MP3
Видео: Flash Video 1, 426x240, 29.97fps, 292kbps, 0.093 bit/pixel
Аудио: MP3, 22050Hz, 2 ch stereo, 64kbps

Скриншоты




Дополнительная информация

General
Complete name : D:\torrent\VGA.flv
Format : Flash Video
File size : 218 MiB
Duration : 1h 25mn
Overall bit rate : 359 Kbps
httphostheader : r5---sn-gvnuxaxjvh-n8vl.c.youtube.com
Video
Format : Sorenson Spark
Codec ID : 2
Duration : 1h 25mn
Bit rate : 286 Kbps
Width : 426 pixels
Height : 240 pixels
Display aspect ratio : 16:9
Frame rate mode : Constant
Frame rate : 29.970 fps
Bit depth : 8 bits
Bits/(Pixel*Frame) : 0.093
Stream size : 174 MiB (80%)
Audio
Format : MPEG Audio
Format version : Version 2
Format profile : Layer 3
Mode : Joint stereo
Mode extension : MS Stereo
Codec ID : 2
Codec ID/Hint : MP3
Duration : 1h 25mn
Bit rate mode : Constant
Bit rate : 64.0 Kbps
Channel(s) : 2 channels
Sampling rate : 22.05 KHz
Compression mode : Lossy
Stream size : 38.9 MiB (18%)
Writing library : LAME3.98.2

_________________
Подпись отключена за нарушение правил форума

Создавать темы 13-Фев-2013 20:03

[Профиль]  [ЛС] 

Killer Bi ®

Стаж: 5 лет 7 месяцев

Сообщений: 77

кому понравилось отпишитесь в коменте

_________________
Подпись отключена за нарушение правил форума

Создавать темы 26-Фев-2013 19:52

[Профиль]  [ЛС] 

matmusa

Стаж: 4 года 11 месяцев

Сообщений: 16

кому понравилось отпишитесь в коменте
Мож. раздат русский перевод?????

Создавать темы 10-Мар-2013 13:24

[Профиль]  [ЛС] 
Показать сообщения:    
Ответить на тему

Текущее время: 24-Авг 09:46

Часовой пояс: UTC + 5



Вы не можете начинать темы
Вы не можете отвечать на сообщения
Вы не можете редактировать свои сообщения
Вы не можете удалять свои сообщения
Вы не можете голосовать в опросах
Вы не можете прикреплять файлы к сообщениям
Вы не можете скачивать файлы