Поймай меня, если сможешь / Catch me, if you can (Стивен Спилберг) [2002 г., драма, криминал, биография, BDRip]

Страницы :  1, 2  След.

Ответить на тему
 

nasri91 ®

Стаж: 4 года 11 месяцев

Сообщений: 48

Симпатии: 1

Поймай меня, если сможешь / Catch me, if you can
Год выпуска: 2002
Страна: США
Жанр: драма, криминал, биография
Продолжительность: 02:20:38
Перевод: Дублированное
Режиссер: Стивен Спилберг
В ролях: Леонардо ДиКаприо, Том Хэнкс, Кристофер Уокен, Мартин Шин, Натали Бэй, Джеймс Бролин, Брайн Хоуи, Фрэнк Джон Хьюис, Стив Остин, Крис Эллис и др.
Описание: Фрэнк Эбегнейл успел поработать врачом, адвокатом и пилотом на пассажирской авиалинии — и все это до достижения полного совершеннолетия в 21 год. Мастер в обмане и жульничестве, он также обладал искусством подделки документов, что в конечном счете принесло ему миллионы долларов, которые он получил по фальшивым чекам.
Агент ФБР Карл Хэнрэтти отдал бы все, чтобы схватить Фрэнка и привлечь к ответственности за свои деяния, но Фрэнк всегда опережает его на шаг, заставляя продолжать погоню.
Доп. информация: Награды
2003 — Премия «BAFTA»
Лучшая мужская роль второго плана — Кристофер Уокен
Номинации
2003 — Премия «Оскар»
Лучший оригинальный саундтрек — Джон Уильямс
Лучшая мужская роль второго плана — Кристофер Уокен
2003 — Премия BAFTA
Награда «Anthony Asquith Award» за музыку к фильму — Джон Уильямс
Лучшие костюмы
Лучший сценарий — Джефф Натансон
2003 — Премия Эдгара Аллана По
Лучший фильм — Джефф Натансон
2003 — Премия «Золотой глобус»
Лучший драматический актёр — Леонардо Ди Каприо
2004 — Премия «Грэмми»
Лучший альбом-саундтрек — Джон Уильямс
2003 — Премия «MTV Movie Awards»
Лучшая мужская роль — Леонардо Ди Каприо
Качество: BDRip
Формат: AVI
Видео кодек: Другой MPEG4
Аудио кодек: AC3
Видео: 720x400 (MPEG4) Битрейт : 1 657 Kbps
Аудио: озвучивание: дублированное AC3 (384 kbps)

Аудио №1 (Русский)

УДОСТОВЕРЕНИЕ ЛИЧНОСТИ: 1
Формат: AC-3
Формат/Информация: Аудио, Кодирующее 3
Расширение Способа Параметров настройки формата: CM (заканчивают главный),
Удостоверение личности кодер-декодера: 2000
Продолжительность: 2 ч 20mn
Способ битрейта: Постоянный
Битрейт: 384 Кбит/с
Канал (ы): 6 каналов
Положения канала: Фронт: L C R, Сторона: L R, LFE
Осуществление выборки уровня: 48.0 кГц
Размер потока: 386 МИБ (13%)
Выравнивание: Раскол accross чередования
Чередование, продолжительность: 42 мс (1.00 видео структуры)
Чередование, продолжительность предварительной нагрузки: 500 мс

Аудио №2 (Русский многоголосный)

УДОСТОВЕРЕНИЕ ЛИЧНОСТИ: 2
Формат: AC-3
Формат/Информация: Аудио, Кодирующее 3
Расширение Способа Параметров настройки формата: CM (заканчивают главный),
Удостоверение личности кодер-декодера: 2000
Продолжительность: 2 ч 20mn
Способ битрейта: Постоянный
Битрейт: 448 Кбит/с
Канал (ы): 6 каналов
Положения канала: Фронт: L C R, Сторона: L R, LFE
Осуществление выборки уровня: 48.0 кГц
Видео задержка: 3 мс
Размер потока: 451 МИБ (15%)
Выравнивание: Раскол accross чередования
Чередование, продолжительность: 42 мс (1.00 видео структуры)
Чередование, продолжительность предварительной нагрузки: 500 мс

Аудио №3 (Английский)

УДОСТОВЕРЕНИЕ ЛИЧНОСТИ: 3
Формат: AC-3
Формат/Информация: Аудио, Кодирующее 3
Расширение Способа Параметров настройки формата: CM (заканчивают главный),
Удостоверение личности кодер-декодера: 2000
Продолжительность: 2 ч 20mn
Способ битрейта: Постоянный
Битрейт: 448 Кбит/с
Канал (ы): 6 каналов
Положения канала: Фронт: L C R, Сторона: L R, LFE
Осуществление выборки уровня: 48.0 кГц
Размер потока: 451 МИБ (15%)
Выравнивание: Раскол accross чередования
Чередование, продолжительность: 42 мс (1.00 видео структуры)
Чередование, продолжительность предварительной нагрузки: 500 мс

лог медиа инфо

General
Complete name : D:\kino\1Новый декабрь 2012\Поймай меня, если сможешь\catch_me_if_you_can_rus_eng.avi
Format : AVI
Format/Info : Audio Video Interleave
Format profile : OpenDML
File size : 2.91 GiB
Duration : 2h 20mn
Overall bit rate : 2 958 Kbps
Writing application : VirtualDubMod 1.5.10.2 (build 2540/release)
Writing library : VirtualDubMod build 2540/release
Video #0
ID : 0
Format : MPEG-4 Visual
Format profile : Advanced [email protected]
Format settings, BVOP : Yes
Format settings, QPel : No
Format settings, GMC : No warppoints
Format settings, Matrix : Default (MPEG)
Codec ID : XVID
Codec ID/Hint : XviD
Duration : 2h 20mn
Bit rate : 1 657 Kbps
Width : 720 pixels
Height : 400 pixels
Display aspect ratio : 16:9
Frame rate : 23.976 fps
Resolution : 8 bits
Colorimetry : 4:2:0
Scan type : Progressive
Bits/(Pixel*Frame) : 0.240
Stream size : 1.63 GiB (56%)
Writing library : XviD 1.2.1 (UTC 2008-12-04)
Audio #1
ID : 1
Format : AC-3
Format/Info : Audio Coding 3
Format_Settings_ModeExtension : CM (complete main)
Codec ID : 2000
Duration : 2h 20mn
Bit rate mode : Constant
Bit rate : 384 Kbps
Channel(s) : 6 channels
Channel positions : Front: L C R, Side: L R, LFE
Sampling rate : 48.0 KHz
Stream size : 386 MiB (13%)
Alignment : Split accross interleaves
Interleave, duration : 42 ms (1.00 video frame)
Interleave, preload duration : 500 ms
Audio #2
ID : 2
Format : AC-3
Format/Info : Audio Coding 3
Format_Settings_ModeExtension : CM (complete main)
Codec ID : 2000
Duration : 2h 20mn
Bit rate mode : Constant
Bit rate : 448 Kbps
Channel(s) : 6 channels
Channel positions : Front: L C R, Side: L R, LFE
Sampling rate : 48.0 KHz
Video delay : 3ms
Stream size : 451 MiB (15%)
Alignment : Split accross interleaves
Interleave, duration : 42 ms (1.00 video frame)
Interleave, preload duration : 500 ms
Audio #3
ID : 3
Format : AC-3
Format/Info : Audio Coding 3
Format_Settings_ModeExtension : CM (complete main)
Codec ID : 2000
Duration : 2h 20mn
Bit rate mode : Constant
Bit rate : 448 Kbps
Channel(s) : 6 channels
Channel positions : Front: L C R, Side: L R, LFE
Sampling rate : 48.0 KHz
Stream size : 451 MiB (15%)
Alignment : Split accross interleaves
Interleave, duration : 42 ms (1.00 video frame)
Interleave, preload duration : 500 ms

Скриншоты



Последний раз редактировалось: nasri91 (2013-02-15 23:29), всего редактировалось 14 раз(а)

Создавать темы 13-Фев-2013 22:00

[Профиль]  [ЛС] 

Tristan94

Стаж: 5 лет 2 месяца

Сообщений: 33

Спасибо, давно искал этот фильм!!!

Создавать темы 13-Фев-2013 22:21

[Профиль]  [ЛС] 

Imhoteb

Стаж: 5 лет 2 месяца

Сообщений: 22

Спасибо, давно искал этот фильм!!!
Аналогично...
Чую будут претензии к оформлению)

Создавать темы 13-Фев-2013 22:25

[Профиль]  [ЛС] 

nasri91 ®

Стаж: 4 года 11 месяцев

Сообщений: 48

Симпатии: 1

а я все по правилам сделал
Спасибо, давно искал этот фильм!!!
Аналогично...
Чую будут претензии к оформлению)

Создавать темы 13-Фев-2013 22:29

[Профиль]  [ЛС] 

Imhoteb

Стаж: 5 лет 2 месяца

Сообщений: 22

Поймай меня, если сможешь / catch_me_if_you_can_rus_eng (Стивен Спилберг) [2002 г., драма, криминал, биография, HDTV]
С этим точно не лады мне кажется...

Создавать темы 13-Фев-2013 22:43

[Профиль]  [ЛС] 

nasri91 ®

Стаж: 4 года 11 месяцев

Сообщений: 48

Симпатии: 1

исправил

Создавать темы 13-Фев-2013 22:49

[Профиль]  [ЛС] 

Mrblack

Стаж: 6 лет 7 месяцев

Сообщений: 247

Симпатии: 52

Поймай меня, если сможешь / catch_me_if_you_can
С этим тоже исправте! очен хороший фильм

Создавать темы 13-Фев-2013 22:57

[Профиль]  [ЛС] 

nasri91 ®

Стаж: 4 года 11 месяцев

Сообщений: 48

Симпатии: 1

все ок

Создавать темы 13-Фев-2013 23:03

[Профиль]  [ЛС] 

victor0778

Стаж: 6 лет 10 месяцев

Сообщений: 1670

Симпатии: 142

nasri91,
продолжительность в таком формате напишите ччммсс
здесь 3 вида аудио дорожек, надо указать их все, тех. данные и что за озвучка
качество здесь BDRip
скриншоты не совпадают по размерам
битрейт видео укажите
выложите лог медиа инфо

Создавать темы 14-Фев-2013 02:02

[Профиль]  [ЛС] 

Tristan94

Стаж: 5 лет 2 месяца

Сообщений: 33

Когда раздача???

Создавать темы 16-Фев-2013 16:34

[Профиль]  [ЛС] 

nasri91 ®

Стаж: 4 года 11 месяцев

Сообщений: 48

Симпатии: 1

раздача вне раб. время

Создавать темы 16-Фев-2013 21:06

[Профиль]  [ЛС] 

nasri91 ®

Стаж: 4 года 11 месяцев

Сообщений: 48

Симпатии: 1

после 20:00

Создавать темы 16-Фев-2013 21:06

[Профиль]  [ЛС] 

Mrblack

Стаж: 6 лет 7 месяцев

Сообщений: 247

Симпатии: 52

Автор встанте га раздачу!

Создавать темы 25-Мар-2013 01:41

[Профиль]  [ЛС] 

vampir

Стаж: 4 года 10 месяцев

Сообщений: 5

встанте га раздачу плиз... bc

Создавать темы 10-Апр-2013 00:11

[Профиль]  [ЛС] 

Dilyorbek

Стаж: 7 лет

Сообщений: 49

Симпатии: 1

дайте СКО РОС ТИИИИ!!!

Создавать темы 19-Апр-2013 18:34

[Профиль]  [ЛС] 
Показать сообщения:    
Ответить на тему

Текущее время: 17-Дек 13:00

Часовой пояс: UTC + 5



Вы не можете начинать темы
Вы не можете отвечать на сообщения
Вы не можете редактировать свои сообщения
Вы не можете удалять свои сообщения
Вы не можете голосовать в опросах
Вы не можете прикреплять файлы к сообщениям
Вы не можете скачивать файлы