Обитель зла: Возмездие / Resident Evil: Retribution (Пол У. С. Андерсон / Paul W.S. Anderson) [2012 г., ужасы, фантастика, боевик, триллер, BDRip]

Ответить на тему
 

Эльдор ®

Стаж: 7 лет 7 месяцев

Сообщений: 14

Симпатии: 1

Обитель зла: Возмездие / Resident Evil: Retribution Страна: Германия, Канада
Студия: Constantin Film International, Davis Films/Impact Pictures (RE5)
Слоган: «Evil goes global»
Жанр: ужасы, фантастика, боевик, триллер
Год выпуска: 2012
Продолжительность: 01:35:37
Перевод: Профессиональный (дублированный)
Режиссер: Пол У. С. Андерсон / Paul W.S. Anderson
В ролях: Милла Йовович, Сиенна Гиллори, Мишель Родригес, Ариана Энджинир, Ли Бинбин, Борис Коджо, Йохан Урб, Робин Касянов, Кевин Дюран, Офилио Портильо.
Описание: Смертельный T-вирус, созданный в лабораториях корпорации «Амбрелла», продолжает захватывать Землю, превращая мировое население в легионы пожирающих плоть зомби. Последняя надежда человечества Элис внедряется в самое сердце самой тайной исследовательской базы корпорации и узнает еще больше о собственном таинственном прошлом. Не имея путей к отступлению, Элис продолжает искать виновных в глобальной катастрофе. Вызов, который она принимала в Токио, Нью-Йорке, Вашингтоне и даже в Москве, приводит ее в итоге к взрывающему сознание откровению, которое заставит ее переосмыслить все, что она полагала правдой. С помощью новых союзников и старых друзей, Элис будет сражаться за выживание и убегать из враждебного мира. Отсчет времени начат
Качество: HDRip
Контейнер: AVI
Формат 3D: Half SideBySide / Горизонтальная анаморфная стереопара
Видео кодек: x264
Аудио кодек: MP3
Видео: MPEG4 Video (H264) 1920x1080 24fps [Stream 00]
Аудио: MP3 48000Hz stereo 256kbps [Stream 01]

Доп. инфо

Format : AVI
Format/Info : Audio Video Interleave
Format profile : OpenDML
File size : 10.8 GiB
Duration : 1h 35mn
Overall bit rate : 16.2 Mbps
Movie name : RESEV5_3D_BLUEBIRD.Title1.Bluray3DRip
Writing application : Lavf52.94.0
Video
ID : 0
Format : AVC
Format/Info : Advanced Video Codec
Format profile : [email protected]
Format settings, CABAC : Yes
Format settings, ReFrames : 2 frames
Codec ID : H264
Duration : 1h 35mn
Bit rate : 16.0 Mbps
Nominal bit rate : 17.0 Mbps
Width : 1 920 pixels
Height : 1 080 pixels
Display aspect ratio : 16:9
Frame rate mode : Variable
Frame rate : 24.000 fps
Color space : YUV
Chroma subsampling : 4:2:0
Bit depth : 8 bits
Scan type : Progressive
Bits/(Pixel*Frame) : 0.321
Stream size : 10.7 GiB (98%)
Writing library : x264 core 112 r1834 a51816a
Encoding settings : cabac=1 / ref=1 / deblock=1:0:0 / analyse=0x1:0 / me=dia / subme=2 / psy=1 / psy_rd=0.00:0.00 / mixed_ref=0 / me_range=16 / chroma_me=1 / trellis=0 / 8x8dct=0 / cqm=0 / deadzone=21,11 / fast_pskip=1 / chroma_qp_offset=0 / threads=4 / sliced_threads=0 / nr=0 / decimate=1 / interlaced=0 / constrained_intra=0 / bframes=3 / b_pyramid=0 / b_adapt=1 / b_bias=0 / direct=3 / weightb=0 / open_gop=0 / weightp=2 / keyint=250 / keyint_min=25 / scenecut=40 / intra_refresh=0 / rc_lookahead=40 / rc=abr / mbtree=1 / bitrate=17000 / ratetol=1.0 / qcomp=0.60 / qpmin=10 / qpmax=51 / qpstep=4 / ip_ratio=1.41 / aq=1:1.00
Audio
ID : 1
Format : MPEG Audio
Format version : Version 1
Format profile : Layer 3
Mode : Joint stereo
Codec ID : 55
Codec ID/Hint : MP3
Duration : 1h 35mn
Bit rate mode : Constant
Bit rate : 256 Kbps
Channel(s) : 2 channels
Sampling rate : 48.0 KHz
Compression mode : Lossy
Stream size : 175 MiB (2%)
Alignment : Aligned on interleaves
Interleave, duration : 24 ms (0.58 video frame)
Writing library : LAME3.98.4ЄЄЄЄЄЄЄЄЄЄ

Скриншоты






Последний раз редактировалось: Эльдор (2013-02-14 15:06), всего редактировалось 1 раз

Создавать темы 13-Фев-2013 23:00

[Профиль]  [ЛС] 

mp1988

Стаж: 6 лет 8 месяцев

Сообщений: 607

Симпатии: 971

Эльдор, скрины по размеру сделайте

Создавать темы 14-Фев-2013 07:49

[Профиль]  [ЛС] 

sean80

Стаж: 6 лет 8 месяцев

Сообщений: 38

Симпатии: 4

Не, конечно если раздавать со скоростью 19 кб/с, где то за месяц думаю можно скачать!!! :(
Дайте скорости!!!

Создавать темы 14-Фев-2013 21:38

[Профиль]  [ЛС] 

sixaxis

Стаж: 6 лет 6 месяцев

Сообщений: 75

Эльдор, привет, Up скорости ?))

Создавать темы 20-Фев-2013 08:48

[Профиль]  [ЛС] 

sean80

Стаж: 6 лет 8 месяцев

Сообщений: 38

Симпатии: 4

Ну дайте скорости, а! Уже больше недели качаю :(

Создавать темы 25-Фев-2013 21:55

[Профиль]  [ЛС] 

triller

Стаж: 5 лет 1 месяц

Сообщений: 20

cкорости дайте пожалуста

Создавать темы 15-Апр-2013 19:19

[Профиль]  [ЛС] 

triller

Стаж: 5 лет 1 месяц

Сообщений: 20

скорости дайте я уже неделю почти качаю

Создавать темы 19-Апр-2013 13:57

[Профиль]  [ЛС] 

triller

Стаж: 5 лет 1 месяц

Сообщений: 20

люди у вас совесть есть помогите скачать он скачан 17 раз а сидов всего 1

Создавать темы 23-Апр-2013 14:59

[Профиль]  [ЛС] 

Free bird))

Стаж: 5 лет

Сообщений: 7

Пожалуйста дайте скачать.. Люди вернитесь на раздачу.. Плиз)))

Создавать темы 04-Июн-2013 15:12

[Профиль]  [ЛС] 

nurbek79..

Стаж: 6 лет 6 месяцев

Сообщений: 11

не могу с копироват на флешку

Создавать темы 23-Дек-2013 18:28

[Профиль]  [ЛС] 

alicard72

Стаж: 6 лет 4 месяца

Сообщений: 30

Симпатии: 1

Интересно а чёрные полосы по краям при просмотре останутся ?

Создавать темы 21-Янв-2014 21:46

[Профиль]  [ЛС] 

Vlad7667

Стаж: 5 лет

Сообщений: 196

Симпатии: 187

Интересно а чёрные полосы по краям при просмотре останутся ?
Да

Создавать темы 21-Янв-2014 22:05

[Профиль]  [ЛС] 

Вконтакте

Стаж: 3 года 10 месяцев

Сообщений: 40

не могу с копироват на флешку
Флешка отформотируй и поставь FAT и скинешь , тупо больше 4гб за один присест флешка не ест

Создавать темы 21-Янв-2014 22:45

[Профиль]  [ЛС] 
Показать сообщения:    
Ответить на тему

Текущее время: 17-Окт 20:22

Часовой пояс: UTC + 5



Вы не можете начинать темы
Вы не можете отвечать на сообщения
Вы не можете редактировать свои сообщения
Вы не можете удалять свои сообщения
Вы не можете голосовать в опросах
Вы не можете прикреплять файлы к сообщениям
Вы не можете скачивать файлы