Спецслужбы олигархов (Телеканал "Совершено Секретно") [2007 г., Документальный, TVRip]

Ответить на тему
 

Abdulaziz1111 ®

Стаж: 4 года 10 месяцев

Сообщений: 36

Симпатии: 5

Спецслужбы олигархов- Год выпуска: 2007-Жанр: Документальный-Продолжительность: 39:54-Режиссер: Телеканал "Совершено Секретно"-В ролях: Сотрудники спецслужб, олигархи, политики, журналисты-Описание:
Документальные кадры и рассказ про службы безопасности группы Мост, ЧОП Атолл, и им подобные охранные структуры других олигархов, которые включали в себя аналитические отделы, разведку и информационную контрразведку, специальные группы переговорщиков, телохранителей и на всякий случай боевые отряды. Все эти службы комплектовались кадровыми офицерами ФСБ, МВД, ГРУ и Минобороны-Качество: TVRip
Формат: AVI
Видео кодек: XviD
Аудио кодек: MP3
Видео: Xvid 512x384 25fps [Stream 00]
Аудио: MP3 48000Hz stereo 128kbps [Stream 01]
-

Media.Info


Format : AVI
Format/Info : Audio Video Interleave
File size : 272 MiB
Duration : 39mn 53s
Overall bit rate : 954 Kbps
Video
ID : 0
Format : MPEG-4 Visual
Format profile : Advanced [email protected]
Format settings, BVOP : 2
Format settings, QPel : No
Format settings, GMC : No warppoints
Format settings, Matrix : Default (H.263)
Muxing mode : Packed bitstream
Codec ID : XVID
Codec ID/Hint : XviD
Duration : 39mn 53s
Bit rate : 699 Kbps
Width : 512 pixels
Height : 384 pixels
Display aspect ratio : 4:3
Frame rate : 25.000 fps
Color space : YUV
Chroma subsampling : 4:2:0
Bit depth : 8 bits
Scan type : Progressive
Compression mode : Lossy
Bits/(Pixel*Frame) : 0.142
Stream size : 199 MiB (73%)
Writing library : XviD 1.1.2 (UTC 2006-11-01)
Audio
ID : 1
Format : MPEG Audio
Format version : Version 1
Format profile : Layer 3
Mode : Joint stereo
Mode extension : MS Stereo
Codec ID : 55
Codec ID/Hint : MP3
Duration : 39mn 53s
Bit rate mode : Constant
Bit rate : 128 Kbps
Channel(s) : 2 channels
Sampling rate : 48.0 KHz
Compression mode : Lossy
Stream size : 36.5 MiB (13%)
Alignment : Aligned on interleaves
Interleave, duration : 40 ms (1.00 video frame)

Скриншоты













Последний раз редактировалось: Abdulaziz1111 (2013-03-06 00:37), всего редактировалось 1 раз

Создавать темы 13-Фев-2013 23:29

[Профиль]  [ЛС] 

Zaffa

Стаж: 6 лет 8 месяцев

Сообщений: 62

Симпатии: 7

СПС классный фильм
если есть такое фильмы постав tx tx tx

Создавать темы 16-Фев-2013 10:57

[Профиль]  [ЛС] 
Показать сообщения:    
Ответить на тему

Текущее время: 17-Авг 13:07

Часовой пояс: UTC + 5



Вы не можете начинать темы
Вы не можете отвечать на сообщения
Вы не можете редактировать свои сообщения
Вы не можете удалять свои сообщения
Вы не можете голосовать в опросах
Вы не можете прикреплять файлы к сообщениям
Вы не можете скачивать файлы