Интимная зона (Марина Токарева) [2009 г., Документальный, TVRip]

Ответить на тему
 

Abdulaziz1111 ®

Стаж: 4 года 10 месяцев

Сообщений: 36

Симпатии: 5

Чистосердечное признание. Интимная зона- Год выпуска: 2009
Жанр: Документальный
Продолжительность: 26:40
Режиссер: Марина Токарева-В ролях:
Текст: Сергей Полянский.
Автор: Евгений Шаликов-Описание:
Вашему вниманию предоставляется фильм про жизнь на зоне. Есть очень интересные моменты. “Интимная зона” — всё о сексе за решёткой. Возможна ли настоящая любовь в тюрьме. Ну и многое другое, вы сможете узнать, посмотрев данный документальный фильм.
-Доп. информация: Россия, "Телекомпания ''НТВ''
-Качество: SATRip
Формат: AVI
Видео кодек: DivX
Аудио кодек: MP3
Видео: Video: DivX 5 720x528 25fps [00) Video]
Аудио: Audio: MP3 48000Hz stereo 128kbps [01) Audio]
-

Media.Info


Format : AVI
Format/Info : Audio Video Interleave
File size : 275 MiB
Duration : 26mn 40s
Overall bit rate mode : Variable
Overall bit rate : 1 441 Kbps
Video
ID : 0
Format : MPEG-4 Visual
Format settings, BVOP : 1
Format settings, QPel : No
Format settings, GMC : No warppoints
Format settings, Matrix : Default (H.263)
Muxing mode : Packed bitstream
Codec ID : DX50
Codec ID/Hint : DivX 5
Duration : 26mn 40s
Bit rate : 1 294 Kbps
Width : 720 pixels
Height : 528 pixels
Display aspect ratio : 4:3
Frame rate : 25.000 fps
Color space : YUV
Chroma subsampling : 4:2:0
Bit depth : 8 bits
Scan type : Progressive
Compression mode : Lossy
Bits/(Pixel*Frame) : 0.136
Stream size : 247 MiB (90%)
Title : Video
Writing library : DivX 5.2.1 Alpha (UTC 2004-09-08)
Audio
ID : 1
Format : MPEG Audio
Format version : Version 1
Format profile : Layer 3
Mode : Joint stereo
Mode extension : MS Stereo
Codec ID : 55
Codec ID/Hint : MP3
Duration : 26mn 40s
Bit rate mode : Variable
Bit rate : 128 Kbps
Channel(s) : 2 channels
Sampling rate : 48.0 KHz
Compression mode : Lossy
Stream size : 25.5 MiB (9%)
Alignment : Aligned on interleaves
Interleave, duration : 24 ms (0.60 video frame)
Interleave, preload duration : 186 ms
Title : Audio
Writing library : LAME3.92


Последний раз редактировалось: Abdulaziz1111 (2013-02-14 15:44), всего редактировалось 11 раз(а)

Создавать темы 14-Фев-2013 13:54

[Профиль]  [ЛС] 

Gomer_Front

Стаж: 4 года 7 месяцев

Сообщений: 86

Симпатии: 4

от куда качал? и где скрины?

Создавать темы 14-Фев-2013 14:18

[Профиль]  [ЛС] 

Abdulaziz1111 ®

Стаж: 4 года 10 месяцев

Сообщений: 36

Симпатии: 5

Gomer_Front, Скрины готова, (внутренные ресурсы провайдера)

Создавать темы 14-Фев-2013 15:46

[Профиль]  [ЛС] 

nnn0230

Стаж: 5 лет 6 месяцев

Сообщений: 2

kak ka4at?

Создавать темы 17-Июн-2013 14:03

[Профиль]  [ЛС] 

Bars300

Стаж: 4 года 7 месяцев

Сообщений: 49

Симпатии: 3

ПЛЯЯЯ А КАК СКАЧАТЬ?

Создавать темы 03-Июл-2013 12:17

[Профиль]  [ЛС] 

shahz

Стаж: 5 лет 5 месяцев

Сообщений: 192

Симпатии: 9

Уже закрыли. Теперь нельзя скачать.

Создавать темы 12-Июл-2013 10:15

[Профиль]  [ЛС] 
Показать сообщения:    
Ответить на тему

Текущее время: 18-Авг 17:45

Часовой пояс: UTC + 5



Вы не можете начинать темы
Вы не можете отвечать на сообщения
Вы не можете редактировать свои сообщения
Вы не можете удалять свои сообщения
Вы не можете голосовать в опросах
Вы не можете прикреплять файлы к сообщениям
Вы не можете скачивать файлы