Мимино (Георгий Данелия) [1977 г., комедия, DVDRip]

Ответить на тему
 

Gen-X ®

Стаж: 4 года 8 месяцев

Сообщений: 125

Симпатии: 56

Мимино- Год выпуска: 1977
Жанр: комедия
Продолжительность: 1:31:19-Режиссер: Георгий Данелия-В ролях: Вахтанг Кикабидзе (Валентин Константинович Мизандари, Мимино), Фрунзик Мкртчян (Рубен Вартанович Хачикян), Елена Проклова (Лариса Ивановна Комарова), Евгений Леонов (Иван Волохов), Руслан Микаберидзе (начальник Мимино), Закро Сахвадзе (племянник Мимино), Марина Дюжева (адвокат), Арчил Гомиашвили (Нугзар Папишвили, потерпевший), Валентина Титова (жена оперного певца), Владимир Басов (оперный певец), Зейнаб Боцвадзе (Екатерина Мизандари, сестра Валико), Борислав Брондуков (человек, взвешивающийся перед полетом), Василий Чхаидзе (Аристофан маляр), Котэ Даушвили (дед), Николай Граббе (фронтовой друг Волохова), Эдуард Изотов (Владимир Николаевич, командир экипажа), Ипполит Хвичия (кепочник Кукуш), Заза Колелишвили (пастух), Савелий Крамаров (заключенный), Леонид Куравлёв (профессор Хачикян), Абессалом Лория (Вано, радист из горной деревни друг Валико), Русико Морчаладзе (Лали односельчанка Мимино), Марина Поляк (Катя Рябцева, стюардесса), Владимир Протасенко (Валера), Татьяна Распутина (посетительница ресторана), Карло Саканделидзе (Цинцадзе, снабженец), Надежда Семенцова (секретарь кадровика), Виктор Шульгин (чиновник в министерстве гражданской авиации), Михаил Васьков, Павел Винник (друг Нугзара Папишвили), Георгий Данелия (пилот самолета), Светлана Старикова (стюардесса), Петр Любешкин (отец адвоката), Рене Хобуа, Николай Деберо (муж адвоката), Людмила Гаврилова (организатор симпозиума эндокринологов), Ольга Казакова (Вероника, сестра Ларисы, в титрах не указана), Артем Карапетян (озвучка), Алексей Алексеев (прокурор), Софья Гаррель (пассажирка), Владимир Никитин (Игорь, лётчик), Микаэла Дроздовская (жена Папишвили), Анатолий Иванов (попутчик Рубена Хачикяна), Лариса Барабанова (буфетчица в аэропорту, в титрах не указана), Таисия Литвиненко (секретарша, в титрах не указана)-Описание: Работая в родном горном селении, Мимино перевозит на вертолете почту, фрукты, овец. Но он давно мечтает о настоящей, большой авиации. Наконец ему удается воплотить свою мечту в жизнь…-Доп. информация: "Мимино" — по-грузински "сокол". Так называют друзья героя фильма, летчика Валико Мизандари, по воле режиссера то и дело попадающего в смешные, грустные, а порой драматические ситуации.- 
MPAA рейтинг: (рекомендуется присутствие родителей)-Качество: DVDRip (Рип с DVD-9)
Формат: AVI
Видео кодек: XviD
Аудио кодек: AC3
Видео: 720x406 pixels, 16:9, 1 683 Kbps, 25.000 fps
Аудио: AC-3, 448 Kbps, 48.0 KHz, 6 channels-

Знаете ли Вы, что...

В одном из вырезанных эпизодов, когда Мимино и Рубик заходят в лифт гостиницы, там стоят два японца, похожие друг на друга как близнецы. Увидев входящих, японцы говорят друг другу по-японски (с русскими субтитрами): "Как все эти русские похожи друг на друга".
Также из фильма вырезаны сцены, связанные с одним из героев фильма — сельским кузнецом и полностью вырезан финал фильма, который пришлось перемонтировать.
"Кинопередвижка", показанная в начале фильма, реально действовала в тот период времени, и показанная в фильме аппаратура использовалась.

Цитаты из фильма

Если ты мне сделаешь приятно, я тебе сделаю приятно, и тогда ты мне сделаешь ещё приятнее, а я тебе так приятно сделаю, что тебе будет очень-очень приятно.
Алла, пойдём ресторан, туда-сюда потанцуем…
— АлЁ! Ларису Ивановну хочу!
— Лётчик?
— Иногда. Вообще-то, я эндокринолог.

Я щас там так хАхАтался!
Адвокат — У меня вопрос к свидетелю: «Скажите, подсудимый испытывал личную неприязнь к потерпевшему?»
Хачикян — Даа… исьпитывал. Он мне сказал: «Такую личную неприязнь я исьпитываю к потерпевшему, что кушать не могу.»

Суд — Свидетель Хачикян, ну… а люстру-то подсудимый разбил, да?
Хачикян — Даа… Разбиль. Зачем отрицать… Когда мы пошли домой, он случайно стулом задел…

— Хачикян!
— А?
— Свидетель Хачикян, я Вас что, должна по всей Москве искать?
— Слушай, Вы сами сказали: «Свидетели, удалитесь!» — я удалился…

Пастух спрашивает у Мимино :
— Было восемь баранов. Где еще один?
— Так восемь это с тобой.
Пастух обрадовался и говорит второму пастуху:
— Аа…! Нормально, восемь это со мной было!

Медиа Инфо

Video
ID : 0
Format : MPEG-4 Visual
Format profile : Advanced [email protected]
Format settings, BVOP : 2
Format settings, QPel : No
Format settings, GMC : No warppoints
Format settings, Matrix : Default (H.263)
Muxing mode : Packed bitstream
Codec ID : XVID
Codec ID/Hint : XviD
Duration : 1h 31mn
Bit rate : 1 683 Kbps
Width : 720 pixels
Height : 406 pixels
Display aspect ratio : 16:9
Frame rate : 25.000 fps
Color space : YUV
Chroma subsampling : 4:2:0
Bit depth : 8 bits
Scan type : Progressive
Compression mode : Lossy
Bits/(Pixel*Frame) : 0.230
Stream size : 1.07 GiB (79%)
Writing library : XviD 1.2.1 (UTC 2008-12-04)
Audio
ID : 1
Format : AC-3
Format/Info : Audio Coding 3
Mode extension : CM (complete main)
Format settings, Endianness : Big
Codec ID : 2000
Duration : 1h 31mn
Bit rate mode : Constant
Bit rate : 448 Kbps
Channel(s) : 6 channels
Channel positions : Front: L C R, Side: L R, LFE
Sampling rate : 48.0 KHz
Bit depth : 16 bits
Compression mode : Lossy
Stream size : 292 MiB (21%)
Alignment : Aligned on interleaves
Interleave, duration : 32 ms (0.80 video frame)

Скриншоты











Последний раз редактировалось: Gen-X (2013-02-23 03:32), всего редактировалось 1 раз

Создавать темы 16-Фев-2013 03:50

[Профиль]  [ЛС] 

Тимур Турабаев

Стаж: 5 лет 5 месяцев

Сообщений: 44

Симпатии: 1

дайте на раздачу уже... реально давно ищу

Создавать темы 16-Фев-2013 23:27

[Профиль]  [ЛС] 

tas ix

Стаж: 5 лет 7 месяцев

Сообщений: 105

Симпатии: 24

Это не фильм это легенда кинематографа и жанра-комедии в частности

Создавать темы 17-Фев-2013 09:17

[Профиль]  [ЛС] 

Gen-X ®

Стаж: 4 года 8 месяцев

Сообщений: 125

Симпатии: 56

Приостановил болшинство своих раздач кроме 4-5 где я только сидирую, раздаю в среднем 30 кб/c. Надеюсь на ваше понимание. И на последок скачав, не уходите с раздачи

Создавать темы 18-Фев-2013 16:53

[Профиль]  [ЛС] 

CONTRAST

Стаж: 5 лет

Сообщений: 14

Дайте раздачуууууу

Создавать темы 03-Май-2013 17:38

[Профиль]  [ЛС] 

Nana

Стаж: 7 лет

Сообщений: 22

Мое кино! Спасибо,кто поддерживает качественный кинематограф!

Создавать темы 26-Май-2013 23:07

[Профиль]  [ЛС] 

Mirkhaidaroff

Стаж: 6 лет 7 месяцев

Сообщений: 12

кто нибудь хочет раздавать?

Создавать темы 15-Сен-2013 14:30

[Профиль]  [ЛС] 

Victor86

Стаж: 5 лет 4 месяца

Сообщений: 2

Спасибо!

Создавать темы 15-Сен-2013 23:18

[Профиль]  [ЛС] 

CONTRAST

Стаж: 5 лет

Сообщений: 14

Дайте раздачу застрял на половине!!!!

Создавать темы 19-Ноя-2013 09:21

[Профиль]  [ЛС] 

CONTRAST

Стаж: 5 лет

Сообщений: 14

Похоже никто ничего не хочет!
кто нибудь хочет раздавать?

Создавать темы 19-Ноя-2013 09:22

[Профиль]  [ЛС] 

CONTRAST

Стаж: 5 лет

Сообщений: 14

Дайте раздачу!
Мимино (Георгий Данелия) [1977 г., комедия, DVDRip]

Создавать темы 19-Ноя-2013 09:22

[Профиль]  [ЛС] 

Shido

Стаж: 6 лет 6 месяцев

Сообщений: 71

Скорость скорость, скоро нас будет много, по первому передача упоминающая об этом фильме!

Создавать темы 18-Янв-2014 21:21

[Профиль]  [ЛС] 

Raisa

Стаж: 3 года 10 месяцев

Сообщений: 1

спасибо!

Создавать темы 02-Апр-2014 21:15

[Профиль]  [ЛС] 
Показать сообщения:    
Ответить на тему

Текущее время: 20-Сен 17:41

Часовой пояс: UTC + 5



Вы не можете начинать темы
Вы не можете отвечать на сообщения
Вы не можете редактировать свои сообщения
Вы не можете удалять свои сообщения
Вы не можете голосовать в опросах
Вы не можете прикреплять файлы к сообщениям
Вы не можете скачивать файлы