Дикий, дикий запад / Wild Wild West (Барри Зонненфельд) [1999 г., фантастика, боевик, комедия, вестерн, HDRip 720p]

Ответить на тему
 

D.J. FoX ®

Стаж: 6 лет 4 месяца

Сообщений: 45

Симпатии: 1

Дикий, дикий запад / Wild Wild West
Год выпуска: 1999
Страна: США
Жанр: фантастика, боевик, комедия, вестерн
Продолжительность: 01:46:00
Перевод: Профессиональный (полное дублирование)
Режиссер: Барри Зонненфельд
В ролях: Уилл Смит, Кевин Кляйн, Кеннет Брана, Сальма Хайек, М. Эммет Уолш, Тед Ливайн, Фредерик Ван Дер Вал, Мюзетта Вандер, София Энг, Линь Бай
Описание: Два суперагента 70-х годов прошлого века, располагающие технологическими штучками, спасают президента США Гранта от злодея-изобретателя Лавлэйса, ведущего борьбу за обладание южными штатами. Обозленный на весь мир, безногий калека при отсутствии детородного органа окружил себя целым гаремом красавиц, чем, вероятно, постоянно поддерживал в себе накал ненависти. Один из суперагентов — лихой и обаятельный чернокожий стрелок Джим Уэст, а другой — Артемус Гордон, белый джентльмен с манерами англичанина. На их стороне и знойная красотка Рита, плененная гигантским механическим пауком.
Качество: HDRip 720p
Формат: MKV
Видео кодек: AVC
Аудио кодек: AC3
Видео: 1280x720, 23.976 fps, 3 311 Kbps
Аудио: 6 channels, 192 Kbps

MediaInfo

General
Format : Matroska
File size : 2.45 GiB
Duration : 1h 46mn
Overall bit rate : 3 311 Kbps
Movie name : Дикий, дикий Запад / Wild Wild West (1999) BDRip 720p от FireBit
Encoded date : UTC 2011-06-04 03:24:02
Writing application : mkvmerge v2.3.0 ('Freak U') built on Sep 8 2008 18:32:16
Writing library : libebml v0.7.7 + libmatroska v0.8.1
Video #1
ID : 1
Format : AVC
Format/Info : Advanced Video Codec
Format profile : [email protected]
Format settings, CABAC : Yes
Format settings, ReFrames : 8 frames
Codec ID : V_MPEG4/ISO/AVC
Duration : 1h 46mn
Bit rate : 2 540 Kbps
Width : 1 280 pixels
Height : 720 pixels
Display aspect ratio : 16:9
Frame rate : 23.976 fps
Color space : YUV
Chroma subsampling : 4:2:0
Bit depth : 8 bits
Scan type : Progressive
Bits/(Pixel*Frame) : 0.115
Stream size : 1.83 GiB (75%)
Title : http://firebit.org
Writing library : x264 core 114 r1924 08d04a4
Encoding settings : cabac=1 / ref=8 / deblock=1:-3:-3 / analyse=0x3:0x113 / me=umh / subme=9 / psy=1 / psy_rd=0.60:0.00 / mixed_ref=1 / me_range=32 / chroma_me=1 / trellis=1 / 8x8dct=1 / cqm=0 / deadzone=21,11 / fast_pskip=0 / chroma_qp_offset=-2 / threads=3 / sliced_threads=0 / nr=0 / decimate=0 / interlaced=0 / constrained_intra=0 / bframes=6 / b_pyramid=2 / b_adapt=2 / b_bias=0 / direct=1 / weightb=1 / open_gop=0 / weightp=2 / keyint=250 / keyint_min=23 / scenecut=40 / intra_refresh=0 / rc_lookahead=40 / rc=2pass / mbtree=1 / bitrate=2540 / ratetol=1.0 / qcomp=0.60 / qpmin=10 / qpmax=51 / qpstep=4 / cplxblur=20.0 / qblur=0.5 / ip_ratio=1.40 / aq=1:1.00
Language : English
Audio #2
ID : 2
Format : AC-3
Format/Info : Audio Coding 3
Mode extension : CM (complete main)
Codec ID : A_AC3
Duration : 1h 46mn
Bit rate mode : Constant
Bit rate : 448 Kbps
Channel(s) : 6 channels
Channel positions : Front: L C R, Side: L R, LFE
Sampling rate : 48.0 KHz
Bit depth : 16 bits
Compression mode : Lossy
Stream size : 340 MiB (14%)
Title : http://firebit.org
Language : Russian
Audio #3
ID : 3
Format : AC-3
Format/Info : Audio Coding 3
Mode extension : CM (complete main)
Codec ID : A_AC3
Duration : 1h 46mn
Bit rate mode : Constant
Bit rate : 192 Kbps
Channel(s) : 2 channels
Channel positions : Front: L R
Sampling rate : 48.0 KHz
Bit depth : 16 bits
Compression mode : Lossy
Stream size : 146 MiB (6%)
Title : http://firebit.org
Language : Ukrainian
Audio #4
ID : 4
Format : AC-3
Format/Info : Audio Coding 3
Mode extension : CM (complete main)
Codec ID : A_AC3
Duration : 1h 46mn
Bit rate mode : Constant
Bit rate : 128 Kbps
Channel(s) : 2 channels
Channel positions : Front: L R
Sampling rate : 48.0 KHz
Bit depth : 16 bits
Compression mode : Lossy
Stream size : 97.0 MiB (4%)
Title : http://firebit.org
Language : English
Text #5
ID : 5
Format : UTF-8
Codec ID : S_TEXT/UTF8
Codec ID/Info : UTF-8 Plain Text
Title : http://firebit.org
Language : English
Text #6
ID : 6
Format : UTF-8
Codec ID : S_TEXT/UTF8
Codec ID/Info : UTF-8 Plain Text
Title : http://firebit.org
Language : Russian
Text #7
ID : 7
Format : UTF-8
Codec ID : S_TEXT/UTF8
Codec ID/Info : UTF-8 Plain Text
Title : http://firebit.org
Language : English
Text #8
ID : 8
Format : UTF-8
Codec ID : S_TEXT/UTF8
Codec ID/Info : UTF-8 Plain Text
Title : http://firebit.org
Language : English

Скриншоты





Последний раз редактировалось: D.J. FoX (2013-02-17 10:31), всего редактировалось 4 раз(а)

Создавать темы 16-Фев-2013 16:10

[Профиль]  [ЛС] 

Топик был перенесен из форума Зарубежное кино в форум HD-AVC

Mixer City

Создавать темы 16-Фев-2013 16:23

 

Robot-IX

Стаж: 5 лет 5 месяцев

Сообщений: 223

Симпатии: 9

D.J. FoX, здесь 3-и звучки и субтитры !!!
Аудио №1: Russian; Ac3 5.1 DD 448Kbps 48KHz DUB
Аудио №2: Ukrainian; Ac3 2ch 192 Kbps 48KHz
Аудио №3: English; Ac3 2ch 128 Kbps 48KHz
Суб. №1: English
Суб. №2: Russian
Суб. №3: English
Суб. №4: English
а так молодчик! фильм хорош! файл чистый!

Создавать темы 17-Фев-2013 13:18

[Профиль]  [ЛС] 
Показать сообщения:    
Ответить на тему

Текущее время: 20-Сен 05:05

Часовой пояс: UTC + 5



Вы не можете начинать темы
Вы не можете отвечать на сообщения
Вы не можете редактировать свои сообщения
Вы не можете удалять свои сообщения
Вы не можете голосовать в опросах
Вы не можете прикреплять файлы к сообщениям
Вы не можете скачивать файлы