Теория Большого Взрыва (с 1 по 6 сезоны) / The Big Bang Theory (Марк Сендровски, Джеймс Берроуз) [2007 г., Молодёжный комедийный сериал, HDTVRip]

Страницы :  1, 2, 3, 4, 5  След.

Ответить на тему
 

kunfusambo ®

Стаж: 4 года 9 месяцев

Сообщений: 101

Симпатии: 6

-The Big Bang Theory Теория Большого Взрыва -Год выпуска: 2007-2013
Страна: США
Жанр: Молодёжный комедийный сериал
Продолжительность: ~00:22:00
Перевод: Профессиональный (одноголосый), /Кураж-Бамбей/
Режиссеры: Марк Сендровски, Джеймс Берроуз
В ролях: Джонни Галэки, Джим Парсонс, Кейли Куоко, Саймон Хельберг, Кунал Найяр и др.
Описание: Два блестящих физика, Леонард и Шелдон, «великие умы», которые понимают, как «работает вселенная». Но их гениальность ничуть не помогает им общаться с людьми, особенно с женщинами. Всё начинает меняться, когда напротив них поселяется красавица Пенни.
Когда Леонард и Шелдон встречают Пенни, Леонард сразу же начинает интересоваться ею. Он видит в общении с Пенни огромную перспективу…, вплоть до любви, однако Шелдон понимает, что мечтам его друга не суждено сбыться.
Стоит также отметить пару странных друзей этих физиков: Воловец, который любит употреблять фразы на разных языках, включая русский, и Раджеш Кутрапали, теряющий дар речи при виде женщин.

Качество: HDTVRip
Формат: AVI, 5 сезон частично MKV
Видео кодек: XviD
Аудио кодек: AC3
Видео: XviD, 720×400, 23.976fps, 1 858 Kbps
Аудио 1: AC3, 48000 Hz, CBR 384 Kbps, 6 Channels
Аудио 2: AC3, 48000 Hz, CBR 384 Kbps, 6 Channel

Был добавлен последний эпизод 6-ого сезона:
Сезон 6. Серия 24. The Bon Voyage Reaction

MediaInfo

Format : AVI
Format/Info : Audio Video Interleave
File size : 401 MiB
Duration : 21mn 22s
Overall bit rate : 2 620 Kbps
Writing library : VirtualDubMod build 2550/release
Video
ID : 0
Format : MPEG-4 Visual
Format profile : Advanced [email protected]
Format settings, BVOP : 1
Format settings, QPel : No
Format settings, GMC : No warppoints
Format settings, Matrix : Default (MPEG)
Codec ID : XVID
Codec ID/Hint : XviD
Duration : 21mn 22s
Bit rate : 1 838 Kbps
Width : 720 pixels
Height : 400 pixels
Display aspect ratio : 16:9
Frame rate : 23.976 fps
Color space : YUV
Chroma subsampling : 4:2:0
Bit depth : 8 bits
Scan type : Progressive
Compression mode : Lossy
Bits/(Pixel*Frame) : 0.266
Stream size : 281 MiB (70%)
Writing library : XviD 1.2.1 (UTC 2008-12-04)
Audio #1
ID : 1
Format : AC-3
Format/Info : Audio Coding 3
Mode extension : CM (complete main)
Codec ID : 2000
Duration : 21mn 22s
Bit rate mode : Constant
Bit rate : 384 Kbps
Channel(s) : 6 channels
Channel positions : Front: L C R, Side: L R, LFE
Sampling rate : 48.0 KHz
Bit depth : 16 bits
Compression mode : Lossy
Stream size : 58.7 MiB (15%)
Alignment : Split accross interleaves
Interleave, duration : 42 ms (1.00 video frame)
Interleave, preload duration : 500 ms
Audio #2
ID : 2
Format : AC-3
Format/Info : Audio Coding 3
Mode extension : CM (complete main)
Codec ID : 2000
Duration : 21mn 22s
Bit rate mode : Constant
Bit rate : 384 Kbps
Channel(s) : 6 channels
Channel positions : Front: L C R, Side: L R, LFE
Sampling rate : 48.0 KHz
Bit depth : 16 bits
Compression mode : Lossy
Stream size : 58.7 MiB (15%)
Alignment : Split accross interleaves
Interleave, duration : 42 ms (1.00 video frame)
Interleave, preload duration : 500 ms

Скриншоты





Последний раз редактировалось: kunfusambo (2013-06-28 16:54), всего редактировалось 25 раз(а)

Создавать темы 16-Фев-2013 23:42

[Профиль]  [ЛС] 

ALilSecret

Стаж: 4 года 11 месяцев

Сообщений: 45

За релиз спасибо! но качать его не буду...так как предпочитаю 720p и формат mkv, с 2мя дорожками и английскими сабами.

Создавать темы 17-Фев-2013 00:27

[Профиль]  [ЛС] 

Alexandr

Стаж: 7 лет 10 месяцев

Сообщений: 31

раздача будет или нет?

Создавать темы 02-Мар-2013 00:45

[Профиль]  [ЛС] 

kunfusambo ®

Стаж: 4 года 9 месяцев

Сообщений: 101

Симпатии: 6

Модеры ещё не проверили. Как проверят, так сразу. bq

Создавать темы 02-Мар-2013 16:21

[Профиль]  [ЛС] 

sailer

Стаж: 8 лет 1 месяц

Сообщений: 37

Симпатии: 17

Что то долго проверяют bx

Создавать темы 14-Мар-2013 22:57

[Профиль]  [ЛС] 

kunfusambo ®

Стаж: 4 года 9 месяцев

Сообщений: 101

Симпатии: 6

да я тоже согласен. слишком долго проверяют.

Создавать темы 14-Мар-2013 23:39

[Профиль]  [ЛС] 

emilsky

Стаж: 7 лет 3 месяца

Сообщений: 2237

Симпатии: 610

kunfusambo, я Вам вроде в ЛС написал, почему стоит премодерация, не?

Создавать темы 14-Мар-2013 23:46

[Профиль]  [ЛС] 

kunfusambo ®

Стаж: 4 года 9 месяцев

Сообщений: 101

Симпатии: 6

Ну прошу, пожалуйста проверьте. Тут же как коллекция идёт, с добавлениями новых серий!!!
Пожалуйста!!!!

Создавать темы 15-Мар-2013 17:19

[Профиль]  [ЛС] 

kunfusambo ®

Стаж: 4 года 9 месяцев

Сообщений: 101

Симпатии: 6

Но если я уберу 6 сезон то раздача не будет отличаться от этой

Создавать темы 15-Мар-2013 17:57

[Профиль]  [ЛС] 

kunfusambo ®

Стаж: 4 года 9 месяцев

Сообщений: 101

Симпатии: 6

18 серия

Создавать темы 16-Мар-2013 16:44

[Профиль]  [ЛС] 

kunfusambo ®

Стаж: 4 года 9 месяцев

Сообщений: 101

Симпатии: 6

19 серия

Создавать темы 19-Мар-2013 16:50

[Профиль]  [ЛС] 

patrik

Стаж: 5 лет 9 месяцев

Сообщений: 45

Симпатии: 1

Я не понимаю, зачем тогда я раздаю? Чтобы потом мою раздачу поглотила эта? Модераторы,остановите свой выбор на какой-то из двух. Тем более,что этой серебро дали не заслужено, А этой http://tas-ix.net/viewtopic.php?t=65068
ничего. Зачем дублировать чужие раздачи? Разница в 1 серии сыграла значение? Так можно и все чужие раздачи поглотить.

Создавать темы 22-Мар-2013 05:44

[Профиль]  [ЛС] 

kunfusambo ®

Стаж: 4 года 9 месяцев

Сообщений: 101

Симпатии: 6

patrik, привет. В чём проблема, я не понимаю. Ты раздавай свою раздачу как обычно. Это торрент трекер. Тут раздаются раздачи не в корыстных, а просто так, из-за доброты душевной. И не надо тут говорить что ты раздаёшь. Ты сам на этой раздаче особо не сидишь.
У меня тут коллекция идёт, а ту раздачу поглотили наверное из-за того что
Полного источника не было: Никогда
Так что не надо обижаться bx

Создавать темы 22-Мар-2013 16:01

[Профиль]  [ЛС] 

patrik

Стаж: 5 лет 9 месяцев

Сообщений: 45

Симпатии: 1

kunfusambo, ну хорошо, я плохо раздаю, вот и раздавай, а я отдохну. колхоз,дело добровольное, администрация поддерживает, значит все отлично. а еще все мои раздачи не забудь поддержать.

Создавать темы 23-Мар-2013 02:38

[Профиль]  [ЛС] 

kunfusambo ®

Стаж: 4 года 9 месяцев

Сообщений: 101

Симпатии: 6

tx bq пусть так и будет


Последний раз редактировалось: kunfusambo (2013-03-24 00:00), всего редактировалось 1 раз

Создавать темы 23-Мар-2013 09:58

[Профиль]  [ЛС] 
Показать сообщения:    
Ответить на тему

Текущее время: 18-Окт 08:44

Часовой пояс: UTC + 5



Вы не можете начинать темы
Вы не можете отвечать на сообщения
Вы не можете редактировать свои сообщения
Вы не можете удалять свои сообщения
Вы не можете голосовать в опросах
Вы не можете прикреплять файлы к сообщениям
Вы не можете скачивать файлы