Трилогия "Властелин Колец" в переводе Гоблина / Lord of Rings (Питер Джексон) [2004 г., Приключения, фентези (пародия), DVDRip]

Страницы :  1, 2, 3  След.

Ответить на тему
 

Wolfling ®

Стаж: 4 года 10 месяцев

Сообщений: 48

Симпатии: 3

Трилогия "Властелин Колец" в переводе Гоблина / Lord of Rings
Год выпуска: 2004
Страна: Новая Зеландия - Россия ab
Жанр: Приключения, фентези (пародия)
Продолжительность: 2:58, 2:53, 3:12
Перевод: Любительский (Гоблинa)
Режиссер: Питер Джексон
В ролях: Элайджа Вуд / Elijah Wood, Шон Эстин / Sean Astin, Вигго Мортенсен / Viggo Mortensen, Иэн МакКеллен / Ian McKellen, Доминик Монахэн / Dominic Monaghan, Билли Бойд / Billy Boyd, Шон Бин / Sean Bean, Орландо Блум / Orlando Bloom, Джон Рис-Дэвис / John Rhys-Davies, Кристофер Ли / Christopher Lee, Сала Бэйкер / Sala Baker, Хьюго Уивинг / Hugo Weaving, Кейт Бланшетт / Cate Blanchett, Лив Тайлер / Liv Tyler, Иэн Холм / Ian Holm
Описание: Собственно, сказание о хоботе Фёдоре Сумкине, которому одна братва помогает донести до места и бросить в топку ворованное козырное колечко, а другая братва - категорически мешает это сделать. По ходу трёх частей повествования, правильной братве приходится выпутываться из множества передряг: простым деревенским пацанятам придётся избавляться от конных эсесовцев на хвосте, Агроном с Логовазом и коротышкой Гиви перемочат уйму урков и гопников, Пендальф Серый завалит Диабло 2, мичуринцы разнесут башню злого деда Сыромяна, атаман Борис Николаич поведёт войско Рохляндии на помощь осаждённому Гондурасу, а Фёдору и Сене Лютому даже придётся иметь дело с таким типом, как мордовский интеллигент по кличке Голый... и это далеко не полный список приключений братвы в сием жестоком мире!
Приятного просмотра!
Качество: DVDRip
Формат: AVI
Видео кодек: DivX
Аудио кодек: AC3
Видео:
Братва и Кольцо: 980 kbps, 608x256 pixels, 2.40:1, 23.976 fps
Две Сорванные Башни: 993 kbps, 592x256 pixels, 2.35:1, 23.976 fps
Возвращение Бомжа: 880 kbps, 592x256 pixels, 2.40:1, 23.976 fps
Аудио:
Братва и Кольцо: 112 kbps, 48.0 KHz, 2 channels
Две Сорванные Башни: 128 kbps, 48.0 KHz, 2 channels
Возвращение Бомжа: 128 kbps, 48.0 KHz, 2 channels

Media Info

Братва и Кольцо:
Format : AVI
Format/Info : Audio Video Interleave
File size : 1.37 GiB
Duration : 2h 58mn
Overall bit rate : 1 098 Kbps
Writing application : VirtualDubMod 1.5.4.1 (build 2178/release)
Writing library : VirtualDubMod build 2178/release
Video
ID : 0
Format : MPEG-4 Visual
Format settings, BVOP : 1
Format settings, QPel : No
Format settings, GMC : No warppoints
Format settings, Matrix : Default (H.263)
Muxing mode : Packed bitstream
Codec ID : DX50
Codec ID/Hint : DivX 5
Duration : 2h 58mn
Bit rate : 980 Kbps
Width : 608 pixels
Height : 256 pixels
Display aspect ratio : 2.40:1
Frame rate : 23.976 fps
Color space : YUV
Chroma subsampling : 4:2:0
Bit depth : 8 bits
Scan type : Progressive
Compression mode : Lossy
Bits/(Pixel*Frame) : 0.262
Stream size : 1.22 GiB (89%)
Writing library : DivX 6.4.0 (UTC 2006-10-03)
Audio
ID : 1
Format : AC-3
Format/Info : Audio Coding 3
Mode extension : CM (complete main)
Format settings, Endianness : Big
Codec ID : 2000
Duration : 2h 57mn
Bit rate mode : Constant
Bit rate : 112 Kbps
Channel(s) : 2 channels
Channel positions : Front: L R
Sampling rate : 48.0 KHz
Bit depth : 16 bits
Compression mode : Lossy
Stream size : 142 MiB (10%)
Alignment : Split accross interleaves
Interleave, duration : 96 ms (2.31 video frames)
Interleave, preload duration : 96 ms
Две Сорванные Башни:
Format : AVI
Format/Info : Audio Video Interleave
File size : 1.37 GiB
Duration : 2h 53mn
Overall bit rate : 1 128 Kbps
Writing application : VirtualDubMod 1.5.4.1 (build 2178/release)
Writing library : VirtualDubMod build 2178/release
Video
ID : 0
Format : MPEG-4 Visual
Format settings, BVOP : 1
Format settings, QPel : No
Format settings, GMC : No warppoints
Format settings, Matrix : Default (H.263)
Muxing mode : Packed bitstream
Codec ID : DX50
Codec ID/Hint : DivX 5
Duration : 2h 53mn
Bit rate : 993 Kbps
Width : 592 pixels
Height : 256 pixels
Display aspect ratio : 2.35:1
Frame rate : 23.976 fps
Color space : YUV
Chroma subsampling : 4:2:0
Bit depth : 8 bits
Scan type : Progressive
Compression mode : Lossy
Bits/(Pixel*Frame) : 0.273
Stream size : 1.20 GiB (88%)
Writing library : DivX 6.4.0 (UTC 2006-10-03)
Audio
ID : 1
Format : MPEG Audio
Format version : Version 1
Format profile : Layer 3
Mode : Joint stereo
Mode extension : MS Stereo
Codec ID : 55
Codec ID/Hint : MP3
Duration : 2h 53mn
Bit rate mode : Constant
Bit rate : 128 Kbps
Channel(s) : 2 channels
Sampling rate : 48.0 KHz
Compression mode : Lossy
Stream size : 159 MiB (11%)
Alignment : Aligned on interleaves
Interleave, duration : 83 ms (2.00 video frames)
Interleave, preload duration : 504 ms
Writing library : LAME3.97b
Encoding settings : -m j -V 4 -q 2 -lowpass 17 -b 128
Возвращение Бомжа:
Format : AVI
Format/Info : Audio Video Interleave
File size : 1.37 GiB
Duration : 3h 12mn
Overall bit rate : 1 015 Kbps
Writing application : VirtualDubMod 1.5.4.1 (build 2178/release)
Writing library : VirtualDubMod build 2178/release
Video
ID : 0
Format : MPEG-4 Visual
Format settings, BVOP : 1
Format settings, QPel : No
Format settings, GMC : No warppoints
Format settings, Matrix : Default (H.263)
Muxing mode : Packed bitstream
Codec ID : DX50
Codec ID/Hint : DivX 5
Duration : 3h 12mn
Bit rate : 880 Kbps
Width : 592 pixels
Height : 256 pixels
Display aspect ratio : 2.35:1
Frame rate : 23.976 fps
Color space : YUV
Chroma subsampling : 4:2:0
Bit depth : 8 bits
Scan type : Progressive
Compression mode : Lossy
Bits/(Pixel*Frame) : 0.242
Stream size : 1.18 GiB (87%)
Writing library : DivX 6.4.0 (UTC 2006-10-03)
Audio
ID : 1
Format : MPEG Audio
Format version : Version 1
Format profile : Layer 3
Mode : Joint stereo
Codec ID : 55
Codec ID/Hint : MP3
Duration : 3h 12mn
Bit rate mode : Constant
Bit rate : 128 Kbps
Channel(s) : 2 channels
Sampling rate : 48.0 KHz
Compression mode : Lossy
Stream size : 176 MiB (13%)
Alignment : Aligned on interleaves
Interleave, duration : 83 ms (2.00 video frames)
Interleave, preload duration : 504 ms
Writing library : LAME3.97b
Encoding settings : -m j -V 4 -q 2 -lowpass 17 -b 128

Скриншоты








Последний раз редактировалось: Wolfling (2013-02-18 17:53), всего редактировалось 3 раз(а)

Создавать темы 17-Фев-2013 03:30

[Профиль]  [ЛС] 

Зверь

Стаж: 5 лет 11 месяцев

Сообщений: 3

А где фильм

Создавать темы 17-Фев-2013 14:17

[Профиль]  [ЛС] 

The_war_

Стаж: 5 лет 10 месяцев

Сообщений: 39

Симпатии: 2

У меня валяются на харде все части могу помочь с раздачей релиза .

Создавать темы 18-Фев-2013 16:10

[Профиль]  [ЛС] 

MrWhite

Стаж: 5 лет 1 месяц

Сообщений: 21

А есть еще какие-нибудь фильмы в стиле Гоблина (не обязательно сам Гоблин,а другие пародии)?

Создавать темы 18-Фев-2013 18:12

[Профиль]  [ЛС] 

Wolfling ®

Стаж: 4 года 10 месяцев

Сообщений: 48

Симпатии: 3

У меня пока нет...

Создавать темы 18-Фев-2013 18:43

[Профиль]  [ЛС] 

MrWhite

Стаж: 5 лет 1 месяц

Сообщений: 21

А названия фильмов можешь перечислить?

Создавать темы 20-Фев-2013 16:09

[Профиль]  [ЛС] 

Wolfling ®

Стаж: 4 года 10 месяцев

Сообщений: 48

Симпатии: 3

Там же написано.
1. Братва и Кольцо.
2. Две Сорванные Башни.
3. Возвращение Бомжа.

Создавать темы 21-Фев-2013 00:00

[Профиль]  [ЛС] 

voody

Стаж: 4 года 10 месяцев

Сообщений: 41

дайте раздачу

Создавать темы 07-Мар-2013 12:53

[Профиль]  [ЛС] 

voody

Стаж: 4 года 10 месяцев

Сообщений: 41

раздачу плиззз

Создавать темы 07-Мар-2013 19:17

[Профиль]  [ЛС] 

Wolfling ®

Стаж: 4 года 10 месяцев

Сообщений: 48

Симпатии: 3

Проблемы были с тырнетом... раздаю :-)

Создавать темы 13-Мар-2013 19:35

[Профиль]  [ЛС] 

saylep

Стаж: 5 лет 8 месяцев

Сообщений: 31

Пожалуйста дайте скорости

Создавать темы 26-Мар-2013 01:57

[Профиль]  [ЛС] 

saylep

Стаж: 5 лет 8 месяцев

Сообщений: 31

Народ помогите скачать фильм. Дайте скорость Пожалуйста

Создавать темы 11-Апр-2013 22:29

[Профиль]  [ЛС] 

Wolfling ®

Стаж: 4 года 10 месяцев

Сообщений: 48

Симпатии: 3

Я не знаю, как дать больше скорости... и так, вроде, на 100+ КБ/с раздаётся.

Создавать темы 13-Апр-2013 00:32

[Профиль]  [ЛС] 

shad12

Стаж: 5 лет 11 месяцев

Сообщений: 107

Симпатии: 13

люди пожалуста раздайте и ночю сразу после закачки на комп я тоже буду раздавать на скорости 1 мбитс честно

Создавать темы 17-Май-2013 19:30

[Профиль]  [ЛС] 

shad12

Стаж: 5 лет 11 месяцев

Сообщений: 107

Симпатии: 13

Добавьте скорость плиззз 43 процентов осталось

Создавать темы 20-Май-2013 16:56

[Профиль]  [ЛС] 
Показать сообщения:    
Ответить на тему

Текущее время: 17-Дек 22:46

Часовой пояс: UTC + 5



Вы не можете начинать темы
Вы не можете отвечать на сообщения
Вы не можете редактировать свои сообщения
Вы не можете удалять свои сообщения
Вы не можете голосовать в опросах
Вы не можете прикреплять файлы к сообщениям
Вы не можете скачивать файлы