Спаун / Spawn (Марк А.З. Диппе) [1997 г., ужасы, боевик, триллер, фэнтези, BDRip]

Ответить на тему
 

Michael Jackson ®

Стаж: 6 лет 8 месяцев

Сообщений: 13

Симпатии: 1

Спаун / Spawn
Год выпуска: 1997
Страна: США
Жанр: ужасы, боевик, триллер, фэнтези
Продолжительность: 01:38:33
Перевод: Профессиональный (многоголосый, закадровый)
Режиссер: Марк А.З. Диппе
В ролях: Майкл Джей Уайт, Джон Легуизамо, Мартин Шин, Тереза Рэндл, Николь Уильямсон, Д.Б. Суини, Мелинда Кларк, Мико Хьюз, Сидни Беаудин, Майкл Пападжон
Описание: «Краповый берет» Эл Симмонс убит своим начальником во время выполнения очередной миссии. Попав в чистилище, он заключает сделку с Дьяволом. Сатана дает ему силу, доспехи и оружие. В обмен на то, чтобы еще раз увидеть свою жену, Симмонс должен предварить приход сил Зла на Землю. Оказавшись на свободе, он разрывает контракт в одностороннем порядке…
Качество: BDRip
Формат: AVI
Видео кодек: XviD
Аудио кодек: AC3
Видео: Xvid, 704x400, 2061 Kbps, 23.976fps
Аудио-rus: AC3, 48000Hz, stereo 192kbps
Аудио-rus: AC3, 48000Hz, 6ch, 448kbps
Аудио-eng: AC3, 48000Hz, 6ch, 448kbps

Скриншоты




MI

General
Complete name : d:\Downloads\Видео\Spaun.DC.1997.TRIPLE.BDRip.XviD.AC3.-HQCLUB.avi
Format : AVI
Format/Info : Audio Video Interleave
Format profile : OpenDML
File size : 2.18 GiB
Duration : 1h 38mn
Overall bit rate : 3 173 Kbps
Movie name : Спаун / Spawn [Director's Cut] (1997) BDRip
Director : yaroslaigor
Genre : фэнтези, боевик, триллер
Writing application : VirtualDubMod 1.5.10.2 (build 2540/release)
Copyright : http://hqclub.net/
Comment : 21.07.2012
Video
ID : 0
Format : MPEG-4 Visual
Format profile : Advanced [email protected]
Format settings, BVOP : 1
Format settings, QPel : No
Format settings, GMC : No warppoints
Format settings, Matrix : Custom
Codec ID : XVID
Codec ID/Hint : XviD
Duration : 1h 38mn
Bit rate : 2 061 Kbps
Width : 704 pixels
Height : 400 pixels
Display aspect ratio : 16:9
Frame rate : 23.976 fps
Color space : YUV
Chroma subsampling : 4:2:0
Bit depth : 8 bits
Scan type : Progressive
Compression mode : Lossy
Bits/(Pixel*Frame) : 0.305
Stream size : 1.42 GiB (65%)
Writing library : XviD 72
Audio #1
ID : 1
Format : AC-3
Format/Info : Audio Coding 3
Mode extension : CM (complete main)
Format settings, Endianness : Big
Codec ID : 2000
Duration : 1h 38mn
Bit rate mode : Constant
Bit rate : 192 Kbps
Channel(s) : 2 channels
Channel positions : Front: L R
Sampling rate : 48.0 KHz
Bit depth : 16 bits
Compression mode : Lossy
Stream size : 135 MiB (6%)
Alignment : Split accross interleaves
Interleave, duration : 42 ms (1.00 video frame)
Interleave, preload duration : 500 ms
Audio #2
ID : 2
Format : AC-3
Format/Info : Audio Coding 3
Mode extension : CM (complete main)
Format settings, Endianness : Big
Codec ID : 2000
Duration : 1h 38mn
Bit rate mode : Constant
Bit rate : 448 Kbps
Channel(s) : 6 channels
Channel positions : Front: L C R, Side: L R, LFE
Sampling rate : 48.0 KHz
Bit depth : 16 bits
Compression mode : Lossy
Stream size : 316 MiB (14%)
Alignment : Split accross interleaves
Interleave, duration : 42 ms (1.00 video frame)
Interleave, preload duration : 500 ms
Audio #3
ID : 3
Format : AC-3
Format/Info : Audio Coding 3
Mode extension : CM (complete main)
Format settings, Endianness : Big
Codec ID : 2000
Duration : 1h 38mn
Bit rate mode : Constant
Bit rate : 448 Kbps
Channel(s) : 6 channels
Channel positions : Front: L C R, Side: L R, LFE
Sampling rate : 48.0 KHz
Bit depth : 16 bits
Compression mode : Lossy
Stream size : 316 MiB (14%)
Alignment : Split accross interleaves
Interleave, duration : 42 ms (1.00 video frame)
Interleave, preload duration : 500 ms

Создавать темы 17-Фев-2013 11:34

[Профиль]  [ЛС] 

Propagandist

Стаж: 5 лет 8 месяцев

Сообщений: 26

Симпатии: 8

оо бешеный фильм...помню на видосе смотрел

Создавать темы 17-Фев-2013 13:47

[Профиль]  [ЛС] 

jazz4fun69

Стаж: 4 года 6 месяцев

Сообщений: 69

благодарю, фильм детства.

Создавать темы 07-Апр-2013 20:31

[Профиль]  [ЛС] 

jazz4fun69

Стаж: 4 года 6 месяцев

Сообщений: 69

смешной момент в фильме, где на 36 минуте чувак говорит "теперь давай поговорим на чистоту" и на две минуты отключается русский перевод

Создавать темы 12-Апр-2013 14:39

[Профиль]  [ЛС] 

frasken

Стаж: 5 лет 7 месяцев

Сообщений: 23

Сидеры, где вы?

Создавать темы 09-Окт-2014 11:02

[Профиль]  [ЛС] 

Daimos

Стаж: 5 лет 1 месяц

Сообщений: 35

Симпатии: 8

Люди, встаньте пожалуйста на раздачу, всего 28% 5,6% процента осталось

Создавать темы 26-Янв-2015 14:54

[Профиль]  [ЛС] 
Показать сообщения:    
Ответить на тему

Текущее время: 20-Сен 10:45

Часовой пояс: UTC + 5



Вы не можете начинать темы
Вы не можете отвечать на сообщения
Вы не можете редактировать свои сообщения
Вы не можете удалять свои сообщения
Вы не можете голосовать в опросах
Вы не можете прикреплять файлы к сообщениям
Вы не можете скачивать файлы