Игровая комната / The Playroom (Джулия Дайер / Julia Dyer) [2013 г., драма, HDTVRip-AVC]

Ответить на тему
 

aziz2725272 ®

Стаж: 5 лет

Сообщений: 158

Симпатии: 6

Игровая комната / The Playroom
Год выпуска: 2013
Страна: США
Жанр: драма
Продолжительность: 01:22:26
Перевод: Субтитры (Алексей Крылов aka rrrtttsss aka prostotak)
Cубтитры: английские (встроены в контейнер, отключаемые), русские (внешние)
Оригинальная аудиодорожка: английский
Режиссер: Джулия Дайер / Julia Dyer
В ролях: Джон Хоукс, Молли Паркер, Коди Линли, Оливия Хэррис, Лидия Маккей, Джонатан МакКлендон, Александра Доук, Джонатан Брукс, Иан Ветето
Описание: Две семьи, четверо детей. В то время, как взрослые сидят в гостиной на диване, попивая крепкие напитки и плетя интриги, дети закрылись на чердаке и рассказывают друг другу таинственную историю...
Качество: HDTVRip-AVC
Формат: MKV
Видео кодек: MPEG2
Аудио кодек: AC3
Видео: AVC, 1280x720 (16:9), 23,976 fps, 3930 kbps
Аудио: AC-3, 48 KHz, 384 kbps, 6 ch, 16 bit
Формат субтитров: softsub (SRT)

MI

Доп. информация: Общее
Уникальный идентификатор : 239534027237276940572009120531595504879 (0xB4349358EC105AE4A700DA1FD0D9ACEF)
Полное имя : H:\SEED\The Playroom (2013) rus\The Playroom (2013) rus.mkv
Формат : Matroska
Версия формата : Version 4 / Version 2
Размер файла : 2,53 Гбайт
Продолжительность : 1 ч. 22 м.
Общий поток : 4401 Кбит/сек
Название фильма : [email protected]
Дата кодирования : UTC 2010-02-22 21:41:31
Программа кодирования : mkvmerge v5.9.0 ('On The Loose') built on Dec 9 2012 15:37:01
Библиотека кодирования : libebml v1.3.0 + libmatroska v1.4.0
Видео
Идентификатор : 1
Формат : AVC
Формат/Информация : Advanced Video Codec
Профиль формата : [email protected]
Параметр CABAC формата : Нет
Параметр ReFrames формата : 2 кадра
Идентификатор кодека : V_MPEG4/ISO/AVC
Продолжительность : 1 ч. 22 м.
Битрейт : 3930 Кбит/сек
Ширина : 1280 пикселей
Высота : 720 пикселей
Соотношение сторон : 16:9
Режим частоты кадров : Постоянный
Частота кадров : 23,976 кадра/сек
Цветовое пространство : YUV
Субдискретизация насыщенности : 4:2:0
Битовая глубина : 8 бит
Тип развёртки : Прогрессивная
Бит/(Пиксели*Кадры) : 0.178
Размер потока : 2,26 Гбайт (89%)
Заголовок : [email protected]
Язык : English
Default : Да
Forced : Нет
Основные цвета : BT.709
Характеристики трансфера : BT.709
Коэффициенты матрицы : BT.709
Аудио
Идентификатор : 2
Формат : AC-3
Формат/Информация : Audio Coding 3
Расширение режима : CM (complete main)
Параметр Endianness формата : Big
Идентификатор кодека : A_AC3
Продолжительность : 1 ч. 22 м.
Вид битрейта : Постоянный
Битрейт : 384 Кбит/сек
Каналы : 6 каналов
Расположение каналов : Front: L C R, Side: L R, LFE
Частота : 48,0 КГц
Битовая глубина : 16 бит
Метод сжатия : С потерями
Размер потока : 226 Мбайт (9%)
Язык : English
Default : Да
Forced : Нет
Текст
Идентификатор : 3
Формат : UTF-8
Идентификатор кодека : S_TEXT/UTF8
Идентификатор кодека/Информация : UTF-8 Plain Text
Язык : English
Default : Нет
Forced : Нет

Скриншоты





Создавать темы 17-Фев-2013 20:12

[Профиль]  [ЛС] 

aziz2725272 ®

Стаж: 5 лет

Сообщений: 158

Симпатии: 6

сильный фильм. Слабоумные идут лесом.

Создавать темы 17-Фев-2013 20:34

[Профиль]  [ЛС] 

magic975

Стаж: 5 лет 8 месяцев

Сообщений: 51

Симпатии: 1

Перевод: Субтитры (Алексей Крылов aka rrrtttsss aka prostotak)
чет я не перевода нет чтоль ?

Создавать темы 17-Фев-2013 20:38

[Профиль]  [ЛС] 

Pretender

Стаж: 6 лет 9 месяцев

Сообщений: 69

Симпатии: 1

Фильмы без перевода сюда перетащют.

Создавать темы 17-Фев-2013 21:06

[Профиль]  [ЛС] 

red_devil

Стаж: 5 лет 8 месяцев

Сообщений: 32

русская озвучка есть или нет?

Создавать темы 17-Фев-2013 22:25

[Профиль]  [ЛС] 

red_devil

Стаж: 5 лет 8 месяцев

Сообщений: 32

aziz2725272, перевод есть нет?озвучка всмысле?

Создавать темы 17-Фев-2013 22:32

[Профиль]  [ЛС] 

Топик был перенесен из форума Фильмы за 2013 (новинки) в форум Фильмы без перевода

Mixer City

Создавать темы 17-Фев-2013 23:13

 

SuperStrike

Стаж: 4 года 8 месяцев

Сообщений: 2

Дайте побольше файлов для скачивания этого фильма, а то, я раздаю нескольким людям, а получаю только от одного!

Создавать темы 23-Фев-2013 14:16

[Профиль]  [ЛС] 
Показать сообщения:    
Ответить на тему

Текущее время: 23-Окт 16:50

Часовой пояс: UTC + 5



Вы не можете начинать темы
Вы не можете отвечать на сообщения
Вы не можете редактировать свои сообщения
Вы не можете удалять свои сообщения
Вы не можете голосовать в опросах
Вы не можете прикреплять файлы к сообщениям
Вы не можете скачивать файлы