Бронирование / Резервация / Aarakshan ( Пракаш Джа / Prakash Jha) [2011, Индия, Драма, DVDRip] VO (zamez)

Ответить на тему
 

Netman ®

Стаж: 4 года 7 месяцев

Сообщений: 8

Бронирование / Aarakshan- Год выпуска: 2011
Страна: Индия
Жанр: триллер, драма
Бюджет: $7 640 000
Продолжительность: 02:44:45
Перевод: Одноголосый, закадровый - zamez
Cубтитры: Есть (только в песнях)
Режиссер: Пракаш Джа / Prakash Jha
В ролях: Амитабх Баччан, Саиф Али Кхан, Дипика Падукон, Маной Баджпаи, Пратик Баббар, Хема Малини, Танви Азми, Саурабх Шукла, Даршан Джаривала, Яшпал Шарма, Мукеш Тивари-Описание: Фильм повествует о легендарном директоре колледжа Прабакаре Ананде и его верном помощнике — Дипаке Кумаре, влюбленном в дочь директора Пурби. У молодых людей есть друг Сушант, который первым страдает от введенной решением Верховного суда политики бронирования. В результате такой перемены в образовании и в общественном мнении друзья становятся врагами, влюбленные ссорятся, а доктор Прабакар Ананд из уважаемого всеми влиятельного человека превращается в безработного изгоя. Долго ли продлятся гонения и сможет ли любовь и дружба побороть все невзгоды и разногласия?-- -Качество: DVDRip
Формат: AVI
Видео кодек: XviD
Аудио кодек: MP3
Видео: XviD, 688x288 pixels, 23.976 fps, 1131 Kbps
Аудио: MP3, 48.0 KHz, 2 ch, 128 Kbps
Формат субтитров: hardsub (неотключаемые)-

MediaInfo

General
Complete name : D:\Downloads\_Upload\Bronirovanie.VO.DVDRip.XviD.avi
Format : AVI
Format/Info : Audio Video Interleave
File size : 1.42 GiB
Duration : 2h 44mn
Overall bit rate : 1 238 Kbps
Movie name : Bronirovanie.2011.DVDRip.XviD.BwTorrents
Director : -= BwTorrents.Ru =-
Genre : -= BwTorrents.Ru =-
Writing application : VirtualDubMod 1.5.10.3 | www.virtualdub-fr.org || (build 2550/release)
Original source form/Name : -= BwTorrents.Ru =-
Copyright : -= BwTorrents.Ru =-
Comment : -= BwTorrents.Ru =-
Video
ID : 0
Format : MPEG-4 Visual
Format profile : Advanced [email protected]
Format settings, BVOP : 2
Format settings, QPel : No
Format settings, GMC : No warppoints
Format settings, Matrix : Default (MPEG)
Codec ID : DX50
Codec ID/Hint : DivX 5
Duration : 2h 44mn
Bit rate : 1 101 Kbps
Width : 688 pixels
Height : 288 pixels
Display aspect ratio : 2.40:1
Frame rate : 23.976 fps
Color space : YUV
Chroma subsampling : 4:2:0
Bit depth : 8 bits
Scan type : Progressive
Compression mode : Lossy
Bits/(Pixel*Frame) : 0.232
Stream size : 1.27 GiB (89%)
Writing library : XviD 1.2.1 (UTC 2008-12-04)
Audio
ID : 1
Format : MPEG Audio
Format version : Version 1
Format profile : Layer 3
Codec ID : 55
Codec ID/Hint : MP3
Duration : 2h 44mn
Bit rate mode : Constant
Bit rate : 128 Kbps
Channel(s) : 2 channels
Sampling rate : 48.0 KHz
Compression mode : Lossy
Stream size : 151 MiB (10%)
Alignment : Aligned on interleaves
Interleave, duration : 42 ms (1.00 video frame)
Interleave, preload duration : 504 ms

Скриншоты






Создавать темы 17-Фев-2013 21:24

[Профиль]  [ЛС] 

Xuri007

Стаж: 5 лет 2 месяца

Сообщений: 106

Баччан, звучит интересно....

Создавать темы 19-Фев-2013 23:12

[Профиль]  [ЛС] 

azik-1993

Стаж: 4 года 6 месяцев

Сообщений: 155

Симпатии: 23

скорость дайте !!!!!!!

Создавать темы 26-Фев-2013 11:37

[Профиль]  [ЛС] 
Показать сообщения:    
Ответить на тему

Текущее время: 20-Авг 07:18

Часовой пояс: UTC + 5



Вы не можете начинать темы
Вы не можете отвечать на сообщения
Вы не можете редактировать свои сообщения
Вы не можете удалять свои сообщения
Вы не можете голосовать в опросах
Вы не можете прикреплять файлы к сообщениям
Вы не можете скачивать файлы