На Байкал 2: На абордаж (Михаил Козлов) [2012, комедия, WEBRip]

Ответить на тему
 

jaska-3d ®

Стаж: 5 лет 8 месяцев

Сообщений: 250

Симпатии: 25

На Байкал 2: На абордаж-
Год выпуска: 2012
Страна: Россия
Жанр: комедия
Продолжительность: 01:16:41
Перевод: Не требуется
Язык: русский (оригинал)
Субтитры: отсутствуют-Режиссер: Михаил Козлов
Сценарий: -
Продюсер: -
Оператор: -
Композитор: --В ролях: Евгений Жамцуев, Михаил Козлов, Сергей Никонов, Александр Хамнушкин, Вероника Михайлова, Дарья Самохина, Александра Чубыкина, Анастасия Воробье
Описание: Как мы помним, в первой части фильма студент питерского института кинематографии отправился на Байкал, чтобы снять там свою дипломную работу, а заодно от души повеселиться. Валентина и его друзей ждало множество самых немыслимых приключений, которые они запомнили на всю оставшуюся жизнь. Надо ли говорить, что в фильме «На Байкал 2: На абордаж» будет еще больше безумия, драйва и отличных шуток?-Премьера (РФ): 20 сентября 2012-- -- -Качество: WEBRip
Формат: AVI
Видео кодек: XviD
Аудио кодеk: MP3
Видео: 720x304 (2.35:1), 25.000 fps, xvid, 1 174 Kbps
Аудио: Аудио #1: MP3, 192 Kbps, 48.0 KHz, 2 ch

МедиаИнфо

General
Complete name                    : Na.Bajkal.2.Na.abordazh.2012.XviD.WEBRip.avi
Format                           : AVI
Format/Info                      : Audio Video Interleave
File size                        : 756 MiB
Duration                         : 1h 16mn
Overall bit rate                 : 1 379 Kbps
Writing application              : Lavf52.93.0
Video
ID                               : 0
Format                           : xvid
Codec ID                         : xvid
Duration                         : 1h 16mn
Bit rate                         : 1 174 Kbps
Width                            : 720 pixels
Height                           : 304 pixels
Display aspect ratio             : 2.35:1
Frame rate                       : 25.000 fps
Bits/(Pixel*Frame)               : 0.215
Stream size                      : 644 MiB (85%)
Audio
ID                               : 1
Format                           : MPEG Audio
Format version                   : Version 1
Format profile                   : Layer 3
Mode                             : Joint stereo
Mode extension                   : MS Stereo
Codec ID                         : 55
Codec ID/Hint                    : MP3
Duration                         : 1h 16mn
Bit rate mode                    : Constant
Bit rate                         : 192 Kbps
Channel(s)                       : 2 channels
Sampling rate                    : 48.0 KHz
Stream size                      : 105 MiB (14%)
Alignment                        : Aligned on interleaves
Interleave, duration             : 24 ms (0.60 video frame)
Interleave, preload duration     : 48 ms

Скриншоты








Доп постер

Создавать темы 19-Фев-2013 23:40

[Профиль]  [ЛС] 

Топик был перенесен из форума Фильмы за 2012 в форум Фильмы за 2012

mp1988

Создавать темы 20-Фев-2013 00:00

 

jaska-3d ®

Стаж: 5 лет 8 месяцев

Сообщений: 250

Симпатии: 25

Размер: 756 MB | Зарегистрирован: 16 часов | Скачан: 0 раз
Сидов: 5 [ 206 KB/s ] Личеров: 16 [ 205 KB/s ]

Создавать темы 20-Фев-2013 16:39

[Профиль]  [ЛС] 

uTorrent

Стаж: 4 года 10 месяцев

Сообщений: 149

Симпатии: 1

мда

Создавать темы 20-Фев-2013 19:46

[Профиль]  [ЛС] 
Показать сообщения:    
Ответить на тему

Текущее время: 23-Авг 16:58

Часовой пояс: UTC + 5



Вы не можете начинать темы
Вы не можете отвечать на сообщения
Вы не можете редактировать свои сообщения
Вы не можете удалять свои сообщения
Вы не можете голосовать в опросах
Вы не можете прикреплять файлы к сообщениям
Вы не можете скачивать файлы