Girls' Generation LG 3D TV Ad (Горизонтальная анаморфная стереопара) [2012 г., Музыка, 3D Видео ролик, BDRip 720p]

Ответить на тему
 

erkin4 ®

Стаж: 6 лет 6 месяцев

Сообщений: 68

Симпатии: 14

Girls' Generation LG 3D TV Ad- Год выпуска: 2012
Жанр: Музыка
Продолжительность: 00:02:26-Описание: Музыкальный клип корейской girls-группы Girls' Generation Демонстрация эффектных вылетов из экрана.-Доп. информация: Girls' Generation (кор: 소녀시대) - южнокорейская группа, состоящая из девяти участниц и основанная компанией SM Entertainment в 2007 году. На данный момент являются одной из популярнейших групп в Корее. Международное название Girls' Generation, фанаты используют аббревиатуру SNSD / SoShi, и корейский вариант So Nyeo Shi Dae. До дебюта участницы группы уже были задействованы в шоу-бизнесе, как актёры, DJ и в качестве моделей. Их официальный фанклуб называется S♡NE (소원) - как название одной из песен их первого альбома. Girls' Generation продали 100,000 копий альбома в Южной Корее и стали первой девичьей группой с начала 2002 года.-Ролики предназначены для показа в магазинах электроники в качестве рекламы новых телевизоров 3D Cinema. Отлично подойдут для демонстрации друзьям и знакомым преимуществ вашего нового 3D телевизора -Формат 3D: Half SideBySide / Горизонтальная анаморфная стереопара
Порядок ракурсов: левый ракурс первый
Качество: BDRip
Формат: MP4
Видео кодек: AVC
Аудио кодек: AAC
Видео: AVC, размер кадра: 1280х720p, битрейт: 16.9 Mbps, frame rate: 23,976 fps
Аудио: AAC, (2 ch) битрейт: 192 Kbps, ч/д.: 48 KHz-

Media Info

General
Complete name :
Format : MPEG-4
Format profile : Base Media / Version 2
Codec ID : mp42
File size : 42.6 MiB
Duration : 2mn 26s
Overall bit rate : 2 441 Kbps
Encoded date : UTC 2012-07-21 12:31:20
Tagged date : UTC 2012-07-21 12:31:20
gsst : 0
gstd : 146703
gssd : B4A7DDA47HH1361291393276168
gshh : r7---sn-4g57kues.c.youtube.com
Video #1
ID : 1
Format : AVC
Format/Info : Advanced Video Codec
Format profile : [email protected]
Format settings, CABAC : Yes
Format settings, ReFrames : 1 frame
Codec ID : avc1
Codec ID/Info : Advanced Video Coding
Duration : 2mn 26s
Bit rate mode : Variable
Bit rate : 2 246 Kbps
Maximum bit rate : 4 636 Kbps
Width : 1 280 pixels
Height : 720 pixels
Display aspect ratio : 16:9
Frame rate mode : Constant
Frame rate : 23.976 fps
Color space : YUV
Chroma subsampling : 4:2:0
Bit depth : 8 bits
Scan type : Progressive
Bits/(Pixel*Frame) : 0.102
Stream size : 39.2 MiB (92%)
Tagged date : UTC 2012-07-21 12:31:20
Audio #2
ID : 2
Format : AAC
Format/Info : Advanced Audio Codec
Format profile : LC
Codec ID : 40
Duration : 2mn 26s
Bit rate mode : Variable
Bit rate : 192 Kbps
Maximum bit rate : 202 Kbps
Channel(s) : 2 channels
Channel positions : Front: L R
Sampling rate : 44.1 KHz
Compression mode : Lossy
Stream size : 3.35 MiB (8%)
Title : IsoMedia File Produced by Google, 5-11-2011
Encoded date : UTC 2012-07-21 12:31:20
Tagged date : UTC 2012-07-21 12:31:20

Скриншоты





Создавать темы 20-Фев-2013 07:23

[Профиль]  [ЛС] 

veniamin

Стаж: 6 лет 10 месяцев

Сообщений: 36

Симпатии: 1

Cтаньте на раздачу

Создавать темы 21-Мар-2013 17:59

[Профиль]  [ЛС] 

PokerStar

Стаж: 4 года 5 месяцев

Сообщений: 24

Симпатии: 1

Дайте скорость Плизз!

Создавать темы 30-Мар-2013 21:04

[Профиль]  [ЛС] 

Nano95

Стаж: 7 лет 1 месяц

Сообщений: 139

Симпатии: 1

дайте скорость плз

Создавать темы 07-Апр-2013 19:06

[Профиль]  [ЛС] 

a1ucard

Стаж: 4 года 5 месяцев

Сообщений: 17

Симпатии: 2

Вай дайте скорости

Создавать темы 10-Май-2015 10:20

[Профиль]  [ЛС] 

fdjon

Стаж: 2 года 5 месяцев

Сообщений: 25

Симпатии: 3

ag ag Это GIRL generation или TOP GIRL ?

Создавать темы 27-Май-2015 10:32

[Профиль]  [ЛС] 
Показать сообщения:    
Ответить на тему

Текущее время: 17-Авг 22:41

Часовой пояс: UTC + 5



Вы не можете начинать темы
Вы не можете отвечать на сообщения
Вы не можете редактировать свои сообщения
Вы не можете удалять свои сообщения
Вы не можете голосовать в опросах
Вы не можете прикреплять файлы к сообщениям
Вы не можете скачивать файлы