Вышибала / Goon (Майкл Даус) [2011 г., комедия, спорт, ..., DVDRip]

Ответить на тему
 

Alex75 ®

Стаж: 6 лет 7 месяцев

Сообщений: 24

Симпатии: 2

Вышибала / Goon
Год выпуска: 2011
Страна: США, Канада
Жанр: комедия, спорт, ...
Продолжительность: 01:30:57
Перевод: Профессиональный (полное дублирование)
Режиссер: Майкл Даус
В ролях: Шонн Уильям, Скотт Джей, Барушель Лив, Шрайбер Юджин...
Описание: Даг — простой вышибала, работающий в провинциальном баре. Однажды, ввязавшись в драку на хоккейном матче с одним из игроков, он попадает в поле зрения тренера команды мастеров. Ему срочно нужен игрок, который сможет защитить на льду ведущего нападающего клуба. Даг не умеет стоять на коньках, но этому можно научиться, зато в драке ему нет равных! У команды-главного конкурента есть свой тафгай, Росс «Босс-Мать-Его» Риа, от одного вида которого дрожит вся хоккейная лига. Дагу и Россу предстоит сойтись в одном матче. Наш герой, с помощью своего друга, делает головокружительную карьеру, сплотив вокруг себя всю команду, и завоевывает любовь самой лучшей девушки на свете. С точки зрения Дага, конечно
Media info: Format : AVI
Format/Info : Audio Video Interleave
File size : 1.46 GiB
Duration : 1h 30mn
Overall bit rate : 2 293 Kbps
Writing application : VirtualDubMod 1.5.10.2 (build 2542/release)
Writing library : VirtualDubMod build 2542/release
Video
ID : 0
Format : MPEG-4 Visual
Format profile : Advanced [email protected]
Format settings, BVOP : Yes
Format settings, QPel : No
Format settings, GMC : No warppoints
Format settings, Matrix : Custom
Codec ID : XVID
Codec ID/Hint : XviD
Duration : 1h 30mn
Bit rate : 1 900 Kbps
Width : 704 pixels
Height : 384 pixels
Display aspect ratio : 16:9
Frame rate : 24.000 fps
Color space : YUV
Chroma subsampling : 4:2:0
Bit depth : 8 bits
Scan type : Progressive
Bits/(Pixel*Frame) : 0.293
Stream size : 1.21 GiB (83%)
Writing library : XviD 65
Audio
ID : 1
Format : AC-3
Format/Info : Audio Coding 3
Mode extension : CM (complete main)
Codec ID : 2000
Duration : 1h 30mn
Bit rate mode : Constant
Bit rate : 384 Kbps
Channel(s) : 6 channels
Channel positions : Front: L C R, Side: L R, LFE
Sampling rate : 48.0 KHz
Bit depth : 16 bits
Stream size : 250 MiB (17%)
Alignment : Split accross interleaves
Interleave, duration : 42 ms (1.00 video frame)
Interleave, preload duration : 500 ms
Качество: DVDRip
Формат: AVI
Видео кодек: XviD
Аудио кодек: AC3
Видео: Xvid, 704x384, 24.00fps, 1 900 Kbps
Аудио: Dolby, AC3, 48000Hz, 6ch, 384kbps

Скриншоты




Создавать темы 20-Фев-2013 10:43

[Профиль]  [ЛС] 

cool_ace

Стаж: 4 года 9 месяцев

Сообщений: 4

заранее спасибо

Создавать темы 09-Мар-2013 11:42

[Профиль]  [ЛС] 

Kit

Стаж: 5 лет 3 месяца

Сообщений: 153

Симпатии: 9

фильм классный, посмеялся от души(особенно в самом начале). также в нём много и пошлости(особенно названия хоккейных команд), хотя фильм это не сильно испортило.
советую посмотреть!!! (конечно если вы его не видели)
мои родители сказали, что я для этого фильма ещё мал, но к их сожалению я просмотрел его первым! ah (поэтому советую поставить возрастное ограничение) ag
и чуть не забыл, Автору СПАСИБО!!!

Создавать темы 12-Мар-2013 22:10

[Профиль]  [ЛС] 

Линка

Стаж: 4 года 9 месяцев

Сообщений: 20

Тут кто нибудь на раздаче есть?)))

Создавать темы 13-Мар-2013 02:03

[Профиль]  [ЛС] 

qwer99

Стаж: 4 года 10 месяцев

Сообщений: 10

Встаньте кто нить на раздачу!!))

Создавать темы 14-Июн-2013 17:04

[Профиль]  [ЛС] 

ШУРЯН

Стаж: 7 лет 7 месяцев

Сообщений: 45

Симпатии: 3

дайте скачать пожалуйста

Создавать темы 22-Фев-2014 07:30

[Профиль]  [ЛС] 
Показать сообщения:    
Ответить на тему

Текущее время: 18-Дек 21:36

Часовой пояс: UTC + 5



Вы не можете начинать темы
Вы не можете отвечать на сообщения
Вы не можете редактировать свои сообщения
Вы не можете удалять свои сообщения
Вы не можете голосовать в опросах
Вы не можете прикреплять файлы к сообщениям
Вы не можете скачивать файлы