The Victoria's Secret Fashion Show [2012, США, музыкальное fashion-шоу, TV Show, HDTV 1080i]

Ответить на тему
 

vikkifree555 ®

Стаж: 5 лет

Сообщений: 39

The Victoria's Secret Fashion Show Страна: США
Жанр: музыкальное fashion-шоу, TV Show
Год выпуска: 2012
Продолжительность: 00:43:28
Cубтитры: нет
Оригинальная аудиодорожка: Английская
Участники: Izabel Goulart, Sui He, Erin Heatherton, Bregje Heine, Elsa Hosk, Chanel Iman, Constance Jablonski, Jacquelyn Jablonski, Jay-Z, Miranda Kerr, Karlie Kloss, Doutzen Kroes, Adriana Lima, Maryna Linchuk, Wen Liu, Mickey Madden, Anais Mali, Nicki Minaj, Caroline Brasch Nielsen, Karmen Pedaru, Behati Prinsloo, Lais Ribeiro, Cameron Russell, Shanina Shaik, Joan Smalls, Julia Stegner, Candice Swanepoel, James Valentine, Anne Vyalitsyna, Kayne West, Caroline Maria Winberg, Lily Aldridge, Alessandra Ambrosio, Jesse Carmichael, Dana Ceres, Jessica Clarke, Shannan Click, Flavia de Oliveira, Emanuela de Paula, Lily Donaldson, Lindsay Ellingson, Matt Flynn, Magdalena Frackowiak, Toni Garrn.
Описание: В этом году "ангелы" Victoria's Secret, одни из самых популярных топ-моделей мира, представили феерические и необыкновенно яркие наряды - комплекты, украшенные цветами, провокационные латексные боди и ансамбли, похожие на костюмы циркачек.Миранда Керр вышла на подиум с роскошными, напоминающие лебединые, крыльями. Даутцен Крез дефилировала с черными крыльями и в корсете в футуристичном стиле.Адриана Лима продемонстрировала красный кафтан, кожаный бра. Дополнение к образу стал цилиндр в руках красавицы.Бразильянка Алессандра Амбросио представила публике floral fantasy bra, выполненное из бриллиантов, сапфиров, рубинов и аметистов стоимостью в 2,5 млн долл.Музыкальное сопровождение шоу обеспечили Рианна, Джастин Бибер и Бруно Марс.В завершении, руководство компании Victoria's Secret, как и канал CBS, транслирующий модное шоу, поблагодарили публику за интерес и внимание к шоу и сообщили, что пожертвовали определенные денежные суммы в фонд оказания помощи пострадавшим от урагана Сэнди.
Качество: HDTV
Формат: MKV
Видео кодек: MPEG2
Аудио кодек: AC3
Видео: MPEG2 Video 1920x1080 59.94fps
Аудио: Dolby AC3 48000Hz 6ch

MediaInfo

General
Unique ID : 190718787706278875828787093520312240067 (0x8F7B1A3833BA9ABE8F892ED7AD8907C3)
Complete name : J:\The.Victoria's.Secret.Fashion.Show.2012.HDTV.1080i.mkv
Format : Matroska
Format version : Version 2
File size : 4.87 GiB
Duration : 43mn 28s
Overall bit rate mode : Variable
Overall bit rate : 16.0 Mbps
Movie name : The.Victoria's.Secret.Fashion.Show.2012.HDTV.1080i
Encoded date : UTC 2012-12-05 17:56:55
Writing application : mkvmerge v5.8.0 ('No Sleep / Pillow') built on Sep 2 2012 15:37:04
Writing library : libebml v1.2.3 + libmatroska v1.3.0
Video #1
ID : 1
Format : MPEG Video
Format version : Version 2
Format profile : [email protected]
Format settings, BVOP : Yes
Format settings, Matrix : Custom
Format settings, GOP : M=3, N=15
Codec ID : V_MPEG2
Codec ID/Info : MPEG 1 or 2 Video
Duration : 43mn 28s
Bit rate mode : Variable
Bit rate : 15.3 Mbps
Maximum bit rate : 38.8 Mbps
Width : 1 920 pixels
Height : 1 080 pixels
Display aspect ratio : 16:9
Frame rate mode : Constant
Frame rate : 29.970 fps
Standard : Component
Color space : YUV
Chroma subsampling : 4:2:0
Bit depth : 8 bits
Scan type : Interlaced
Scan order : Top Field First
Compression mode : Lossy
Bits/(Pixel*Frame) : 0.247
Stream size : 4.65 GiB (96%)
Title : The.Victoria's.Secret.Fashion.Show.2012.HDTV.1080i
Default : Yes
Forced : No
Color primaries : BT.709
Transfer characteristics : BT.709
Matrix coefficients : BT.709
Audio #2
ID : 2
Format : AC-3
Format/Info : Audio Coding 3
Mode extension : CM (complete main)
Format settings, Endianness : Big
Codec ID : A_AC3
Duration : 43mn 28s
Bit rate mode : Constant
Bit rate : 384 Kbps
Channel(s) : 6 channels
Channel positions : Front: L C R, Side: L R, LFE
Sampling rate : 48.0 KHz
Bit depth : 16 bits
Compression mode : Lossy
Stream size : 119 MiB (2%)
Language : English
Default : Yes
Forced : No

Скриншоты





Последний раз редактировалось: vikkifree555 (2013-02-22 15:16), всего редактировалось 3 раз(а)

Создавать темы 21-Фев-2013 21:39

[Профиль]  [ЛС] 

vikkifree555 ®

Стаж: 5 лет

Сообщений: 39

как скрины теперь прилепить?

Создавать темы 21-Фев-2013 22:01

[Профиль]  [ЛС] 

vikkifree555 ®

Стаж: 5 лет

Сообщений: 39

раздача с 16.00 до 24.00 по будням и круглосуточно в воскресенье

Создавать темы 21-Фев-2013 22:25

[Профиль]  [ЛС] 

mp1988

Стаж: 6 лет 8 месяцев

Сообщений: 607

Симпатии: 971

как скрины теперь прилепить?
немного подправил

Создавать темы 22-Фев-2013 15:17

[Профиль]  [ЛС] 

vikkifree555 ®

Стаж: 5 лет

Сообщений: 39

спасибо

Создавать темы 22-Фев-2013 15:35

[Профиль]  [ЛС] 

faizul

Стаж: 5 лет 8 месяцев

Сообщений: 14

скорости дайте люди,и присоединяйтесь к раздаче,вещь красивая..

Создавать темы 28-Фев-2013 12:12

[Профиль]  [ЛС] 

Kokin

Стаж: 7 лет 4 месяца

Сообщений: 8

Раздача на макс включите, год качать будем

Создавать темы 02-Мар-2013 12:12

[Профиль]  [ЛС] 

vikkifree555 ®

Стаж: 5 лет

Сообщений: 39

Раздача на макс включите, год качать будем
Уважаемый, а раздавать будете??????!!!!!!!
Вы же только качаете

Создавать темы 03-Мар-2013 23:34

[Профиль]  [ЛС] 

icefrog_ss

Стаж: 5 лет 1 месяц

Сообщений: 69

Симпатии: 3

Скорость в упадке(( Никак не докачаем..

Создавать темы 04-Мар-2013 02:18

[Профиль]  [ЛС] 

Amiga

Стаж: 5 лет 7 месяцев

Сообщений: 55

Симпатии: 1

поддержу раздачу, но в режиме суперсида.

Создавать темы 04-Мар-2013 10:02

[Профиль]  [ЛС] 

Alliena

Стаж: 6 лет 10 месяцев

Сообщений: 39

Симпатии: 2

Спасибо!!!!!!!!!

Создавать темы 12-Апр-2013 18:38

[Профиль]  [ЛС] 

Max90210

Стаж: 4 года 11 месяцев

Сообщений: 40

Симпатии: 3

умоляю дайте скорость

Создавать темы 19-Апр-2013 20:14

[Профиль]  [ЛС] 

matrimax

Стаж: 4 года 5 месяцев

Сообщений: 8

скорости дайте

Создавать темы 30-Май-2013 08:06

[Профиль]  [ЛС] 

Muzap_best

Стаж: 5 лет 7 месяцев

Сообщений: 12

Ребят, раздавайте!!!

Создавать темы 13-Окт-2013 22:12

[Профиль]  [ЛС] 
Показать сообщения:    
Ответить на тему

Текущее время: 22-Окт 00:42

Часовой пояс: UTC + 5



Вы не можете начинать темы
Вы не можете отвечать на сообщения
Вы не можете редактировать свои сообщения
Вы не можете удалять свои сообщения
Вы не можете голосовать в опросах
Вы не можете прикреплять файлы к сообщениям
Вы не можете скачивать файлы