Раван / Raavan (Мани Ратнам) [2010 г., боевик, триллер, драма, криминал, приключения, DVDRip] VO

Ответить на тему
 

Netman ®

Стаж: 4 года 10 месяцев

Сообщений: 8


Раван / Raavan
- Год выпуска: 2010
Страна: Индия
Жанр: боевик, триллер, драма, криминал, приключения
Бюджет: $ 5 460 000
Продолжительность: 02:10:39
Перевод: Одноголосый, закадровый (Саня Белый)
Режиссер: Мани РатнамВ ролях: Абхишек Баччан, Айшвария Рай, Говинда, Бипаша Басу, Никхил Дривэди, Рави Кишан, Приямани-Описание: Старая, но вечно молодая "Рамаяна" на новый лад. История любви, вражды, борьбы и силы духа. Двое мужчин и одна женщина. Кого из двоих она выберет? Кого выберет Судьба? Кто окажется человеком, а кто - чудовищем? Если любишь, на что ты готов ради любви?-- -Качество: DVDRip
Формат: AVI
Видео кодек: XviD
Аудио кодек: AC3
Видео: 672x320 (2.10:1), 23.976 fps, XviD build 50 ~1141 kbps avg, 0.22 bit/pixel
Аудио: 48 kHz, AC3 Dolby Digital, 3/2 (L,C,R,l,r) + LFE ch, ~448.00 kbps avg-

MediaInfo

General
Complete name : D:\Downloads\_Upload\Raavan\Raavan.DVDRip.Xvid.AC3.VO.avi
Format : AVI
Format/Info : Audio Video Interleave
File size : 1.46 GiB
Duration : 2h 10mn
Overall bit rate : 1 599 Kbps
Movie name : -= BwTorrents.Ru =-
Director : ам64
Genre : -= BwTorrents.Ru =-
Writing application : VirtualDubMod 1.5.10.2 (build 2540/release)
Original source form/Name : -= BwTorrents.Ru =-
Copyright : -= BwTorrents.Ru =-
Comment : -= BwTorrents.Ru =-
Video
ID : 0
Format : MPEG-4 Visual
Format profile : Advanced [email protected]
Format settings, BVOP : 1
Format settings, QPel : No
Format settings, GMC : No warppoints
Format settings, Matrix : Default (H.263)
Codec ID : XVID
Codec ID/Hint : XviD
Duration : 2h 10mn
Bit rate : 1 141 Kbps
Width : 672 pixels
Height : 320 pixels
Display aspect ratio : 2.100
Frame rate : 23.976 fps
Color space : YUV
Chroma subsampling : 4:2:0
Bit depth : 8 bits
Scan type : Progressive
Compression mode : Lossy
Bits/(Pixel*Frame) : 0.221
Stream size : 1.04 GiB (71%)
Writing library : XviD 1.2.1 (UTC 2008-12-04)
Audio
ID : 1
Format : AC-3
Format/Info : Audio Coding 3
Mode extension : CM (complete main)
Codec ID : 2000
Duration : 2h 10mn
Bit rate mode : Constant
Bit rate : 448 Kbps
Channel(s) : 6 channels
Channel positions : Front: L C R, Side: L R, LFE
Sampling rate : 48.0 KHz
Bit depth : 16 bits
Compression mode : Lossy
Stream size : 419 MiB (28%)
Alignment : Split accross interleaves
Interleave, duration : 42 ms (1.00 video frame)
Interleave, preload duration : 500 ms

Скриншоты





Создавать темы 22-Фев-2013 23:45

[Профиль]  [ЛС] 

azik-1993

Стаж: 4 года 9 месяцев

Сообщений: 155

Симпатии: 23

скорость дайте!!!!!

Создавать темы 27-Фев-2013 15:52

[Профиль]  [ЛС] 

Otabek-Shamanov

Стаж: 6 лет 6 месяцев

Сообщений: 3

фильм очень классный. советую всем. я смотрел давно.

Создавать темы 30-Мар-2013 19:24

[Профиль]  [ЛС] 

anignom

Стаж: 5 лет 9 месяцев

Сообщений: 21

Симпатии: 1

скорости дайте плииииз

Создавать темы 04-Июн-2013 08:29

[Профиль]  [ЛС] 

Azizaaaaa

Стаж: 4 года 3 месяца

Сообщений: 55

Симпатии: 1

фильм хороший.... спасибо

Создавать темы 24-Окт-2013 21:22

[Профиль]  [ЛС] 
Показать сообщения:    
Ответить на тему

Текущее время: 20-Ноя 16:52

Часовой пояс: UTC + 5



Вы не можете начинать темы
Вы не можете отвечать на сообщения
Вы не можете редактировать свои сообщения
Вы не можете удалять свои сообщения
Вы не можете голосовать в опросах
Вы не можете прикреплять файлы к сообщениям
Вы не можете скачивать файлы