Цирк Дю Солей / Cirque Du Soleil - Amaluna [2012 г., Цирк, мюзикл, семейный, HDTV]

Ответить на тему
 

рыжий ®

Стаж: 7 лет 5 месяцев

Сообщений: 169

Симпатии: 130

Цирк Дю Солей / Cirque Du Soleil - Amaluna- Год выпуска: 2012
Страна: USA
Жанр: Цирк, мюзикл, семейный
Продолжительность: 52 min.
Описание: Создатели шоу приглашают зрителя на таинственный и чудесный остров, которым правят грациозные богини, руководствующиеся циклами Луны.
Королева этого таинственного острова – Prospera. Готовясь к совершеннолетию своей дочери, Prospera совершает обряд, призванный к почтению женственности, возрождения и баланса. Обряд знаменует принятие идей и ценностей, почитаемых богинями таинственного острова и передающихся от одного поколения к другому.
Королева Prospera при помощи своих чар вызывает бурю, в результате которой на остров попадает группа молодых мужчин. В силу обстоятельств дочь Просперы влюбляется в одного из них. Зритель оказывается в самой гуще эмоциональной истории, сопереживает героям. Любовь, вспыхнувшая между дочерью королевы острова и молодым юношей, проходит через многочисленные испытания. Влюбленные сталкиваются с массой преград и трудностей, преодолевая и превозмогая их.
-Качество: HDTV
Формат: MPEG-TS
Видео кодек: AVC
Аудио кодек: AC3
Видео: 8 399 Kbps; 1280x720; 50.000 fps; 16:9
Аудио: 2 channels; 48.0 KHz; 448 Kbps

MediЯInfo

General
ID : 6 (0x6)
Complete name : Cirque du Soleil - Amaluna.ts
Format : MPEG-TS
File size : 3.38 GiB
Duration : 51mn 59s
Overall bit rate : 9 312 Kbps
Video
ID : 5111 (0x13F7)
Menu ID : 10302 (0x283E)
Format : AVC
Format/Info : Advanced Video Codec
Format profile : [email protected]
Format settings, CABAC : Yes
Format settings, ReFrames : 4 frames
Format settings, GOP : M=4, N=16
Codec ID : 27
Duration : 51mn 59s
Bit rate : 8 399 Kbps
Width : 1 280 pixels
Height : 720 pixels
Display aspect ratio : 16:9
Frame rate : 50.000 fps
Color space : YUV
Chroma subsampling : 4:2:0
Bit depth : 8 bits
Scan type : Progressive
Bits/(Pixel*Frame) : 0.182
Stream size : 3.05 GiB (90%)
Audio
ID : 5116 (0x13FC)
Menu ID : 10302 (0x283E)
Format : AC-3
Format/Info : Audio Coding 3
Mode extension : CM (complete main)
Codec ID : 6
Duration : 52mn 0s
Bit rate mode : Constant
Bit rate : 448 Kbps
Channel(s) : 2 channels
Channel positions : Front: L R
Sampling rate : 48.0 KHz
Bit depth : 16 bits
Compression mode : Lossy
Delay relative to video : -79ms
Stream size : 167 MiB (5%)
Language : German

Скриншоты




Создавать темы 24-Фев-2013 15:27

[Профиль]  [ЛС] 

kusar

Стаж: 5 лет 8 месяцев

Сообщений: 21

ПЛЗ дайте скачать

Создавать темы 02-Мар-2013 23:24

[Профиль]  [ЛС] 

demiart

Стаж: 5 лет 7 месяцев

Сообщений: 123

Симпатии: 1

Господи вот это красота не то что нам пихают в нашем цирке(((

Создавать темы 05-Мар-2013 21:11

[Профиль]  [ЛС] 

Kurd

Стаж: 4 года 8 месяцев

Сообщений: 20

Очень красиво! советую скачать

Создавать темы 10-Мар-2013 00:10

[Профиль]  [ЛС] 

Григорий К

Стаж: 5 лет 1 месяц

Сообщений: 569

Симпатии: 284

В цирке работают кроме акробатов и декораторов с костюмерами ещё и преподаватели вокала, звукорежиссёры, композиторы и ещё огромная туча специалистов. Полностью своё музыкальное сопровождение, живые музыканты. К слову сказать, у молодых людей, занимающихся спортивной акробатикой мечта всей жизни, это попасть работать в Этот самый цирк. То, что нам пихают в нашем цирке, даже пародией не назовёшь. Так, попытка подражать и рекламный ход, не более того. Билеты в цирк Дю Солей стоят кругленькую сумму)))

Создавать темы 04-Май-2013 19:54

[Профиль]  [ЛС] 

ага

Стаж: 5 лет 5 месяцев

Сообщений: 43

Неужели некому сидировать.

Создавать темы 02-Дек-2014 23:01

[Профиль]  [ЛС] 

ага

Стаж: 5 лет 5 месяцев

Сообщений: 43

вроде есть сид, а раздачи нет.

Создавать темы 02-Дек-2014 23:04

[Профиль]  [ЛС] 
Показать сообщения:    
Ответить на тему

Текущее время: 24-Окт 07:26

Часовой пояс: UTC + 5



Вы не можете начинать темы
Вы не можете отвечать на сообщения
Вы не можете редактировать свои сообщения
Вы не можете удалять свои сообщения
Вы не можете голосовать в опросах
Вы не можете прикреплять файлы к сообщениям
Вы не можете скачивать файлы