Полуночный экспресс / The Midnight Meat Train (Рюхэй Китамура) [2008 г., фильм ужасов, DVDRip]

Ответить на тему
 

nasri91 ®

Стаж: 4 года 11 месяцев

Сообщений: 48

Симпатии: 1

Полуночный экспресс / The Midnight Meat Train
Год выпуска: 2008
Страна: США
Жанр: фильм ужасов
Продолжительность: 1:33:52
Перевод: Профессиональный (полное дублирование)
Режиссер: Рюхэй Китамура
В ролях: Брэдли Купер, Лесли Бибб, Брук Шилдс, Винни Джонс
Описание: Фотограф Леон Кауффман, занимающийся съёмками с мест преступлений, мечтает пробиться наверх. Его друг Джаргис устраивает ему встречу с владелицей галереи Сьюзан Хофф, которая одобряет манеру Леона, но выражает пожелание, чтобы новые работы были более жёсткими. Для этого Кауффман снимает насилие над девушкой в метро, однако в кульминационный момент останавливает хулиганов, показав, что их снимает камера наблюдения. Напоследок Леон фотографирует "счастливую" девушку, садящуюся в вагон метро. Хофф одобряет работу Кауффмана, однако говорит, что для участия в выставке требуются ещё две фотографии в подобном роде. Окрылённый, Леон снова выходит на свою фотоохоту и тут его привлекает странный незнакомец, выходящий из подземки. Леон пытается фотографировать его, однако человек чувствует слежку и хватает Леона, но затем отпускает.
Леон случайно узнаёт, что спасённая им девушка — фотомодель, однако она пропала без вести. Изучая свои снимки, фотограф понимает, что девушка села в поезд, в котором находился незнакомец. Тогда Леон начинает следить за ним. Узнает, что тот работает мясником на бойне и каждую ночь ездит на самом последнем поезде метро. Леон предполагает самое худшее — и не ошибается. Пробравшись на этот поезд, он видит, как мясник убивает, а затем разделывает пассажиров последнего рейса. Однако его замечает незнакомец — ему удаётся схватить Леона, но в отличие от остальных своих жертв, он оставляет фотографа в живых. Леон смутно помнит, что какое-то странное существо что-то царапает у него на груди. Он приходит в себя на заброшенной ветке метро под бойней, где работает мясник. Леон пытается спрятаться от своей девушки Майи, которая до этого отказывалась верить его рассказам. Тогда Майя решает сама узнать, что случилось с её бойфрендом — для этого она вместе с Джаргисом пробирается в вычисленное ими по снимкам Леона жилище мясника. Здесь они находят множество хирургических инструментов, а также камеру Кауффмана. Однако неожиданно вернувшийся мясник нападает на Джаргиса. Девушка в ужасе убегает, схватив портмоне зловещего постояльца. Там оказывается расписание последних рейсов метро за 100 лет. Она пытается обратиться с этим в полицию, однако детектив, выслушав её, требует вернуть портмоне хозяину.
Майя пытается попасть на поезд. Здесь она находит Джаргиса, приготовленного для разделки, но ещё живого. И тут её видит мясник. Девушка пытается спастись от него, но безуспешно. Но ей приходит на помощь Леон, который запрыгнул на проходящий состав, увидев в нём свою возлюбленную. Между ним и мясником завязывается драка, в результате которой фотографу удаётся выкинуть своего противника из поезда. Кауффман обнимает девушку, однако поезд неожиданно останавливается и в вагон входит машинист. Он спокойным тоном произносит странную фразу: «Пожалуйста, отодвиньтесь от мяса». Леон и Майя выполняют его пожелание, а затем они видят кошмарную картину — в вагон проникают инфернальные существа, которые начинают пожирать тела. Молодые люди выпрыгивают из поезда и оказываются в месте, полном человеческих останков. Здесь на Леона вновь нападает мясник, однако фотографу удаётся убить его острым обломком бедренной кости. Умирая, мясник шепчет: «Твой черёд». В этот момент снова появляется машинист, который сообщает Леону, что теперь фотограф станет новым мясником. Машинист вырывает у Кауффмана язык, а затем кратко рассказывает ему историю «праотцов», далее объясняет необходимость служения им, дабы миры оставались разделёнными.
На глазах истекающего кровью Леона машинист вырезает у Майи сердце…
Финальные кадры — Леон, одетый, постриженный и экипированный точь-в-точь как мясник, отправляется на охоту за поздними пассажирами в полуночный поезд.
Качество: DVDRip
Формат: AVI
Видео кодек: XviD
Аудио кодек: AC3
Видео: XVID 704x288 25.00fps 1627Kbps
Аудио: Dolby AC3 48000Hz 6ch 448Kbps

Медиа инфо

D:\kino\Полуночный экспресс (Триллер)\Polunochniy.express.2008.dc.DVDRip.avi
General
Complete name : D:\kino\Полуночный экспресс (Триллер)\Polunochniy.express.2008.dc.DVDRip.avi
Format : AVI
Format/Info : Audio Video Interleave
File size : 1.37 GiB
Duration : 1h 33mn
Overall bit rate : 2 085 Kbps
Writing application : VirtualDubMod 1.5.10.2 (build 2540/release)
Writing library : VirtualDubMod build 2540/release
Video #0
ID : 0
Format : MPEG-4 Visual
Format profile : Advanced [email protected]
Format settings, BVOP : Yes
Format settings, QPel : No
Format settings, GMC : No warppoints
Format settings, Matrix : Default (MPEG)
Muxing mode : Packed bitstream
Codec ID : XVID
Codec ID/Hint : XviD
Duration : 1h 33mn
Bit rate : 1 627 Kbps
Width : 704 pixels
Height : 288 pixels
Display aspect ratio : 2.40:1
Frame rate : 25.000 fps
Resolution : 8 bits
Colorimetry : 4:2:0
Scan type : Progressive
Bits/(Pixel*Frame) : 0.321
Stream size : 1.07 GiB (78%)
Writing library : XviD 1.2.0.dev47 (UTC 2006-11-01)
Audio #1
ID : 1
Format : AC-3
Format/Info : Audio Coding 3
Format_Settings_ModeExtension : CM (complete main)
Codec ID : 2000
Duration : 1h 33mn
Bit rate mode : Constant
Bit rate : 448 Kbps
Channel(s) : 6 channels
Channel positions : Front: L C R, Side: L R, LFE
Sampling rate : 48.0 KHz
Stream size : 301 MiB (21%)
Alignment : Split accross interleaves
Interleave, duration : 40 ms (1.00 video frame)
Interleave, preload duration : 500 ms

Скриншоты



Последний раз редактировалось: nasri91 (2013-02-25 08:21), всего редактировалось 1 раз

Создавать темы 24-Фев-2013 22:44

[Профиль]  [ЛС] 

sher3od

Стаж: 5 лет 1 месяц

Сообщений: 41

Симпатии: 3

Ничего себе описание) весь фильм рассказали

Создавать темы 25-Фев-2013 08:42

[Профиль]  [ЛС] 

Tim_Helman

Стаж: 4 года 11 месяцев

Сообщений: 41

Симпатии: 1

)))))Точно подметил вобще Прикол

Создавать темы 25-Фев-2013 11:42

[Профиль]  [ЛС] 

Tim_Helman

Стаж: 4 года 11 месяцев

Сообщений: 41

Симпатии: 1

а вобще как фильм стоит качать?

Создавать темы 25-Фев-2013 11:45

[Профиль]  [ЛС] 

nasri91 ®

Стаж: 4 года 11 месяцев

Сообщений: 48

Симпатии: 1

нормальный. Первый профи фильм Бредли Купера

Создавать темы 25-Фев-2013 12:41

[Профиль]  [ЛС] 

eXpl0sion

Стаж: 6 лет 7 месяцев

Сообщений: 27

Симпатии: 3

Не качает, можно в архив

Создавать темы 03-Июн-2013 04:43

[Профиль]  [ЛС] 

eXpl0sion

Стаж: 6 лет 7 месяцев

Сообщений: 27

Симпатии: 3

Скачал ура !!!

Создавать темы 19-Июл-2013 16:24

[Профиль]  [ЛС] 

Vazgen

Стаж: 4 года 9 месяцев

Сообщений: 7

дайте раздачу плиз

Создавать темы 05-Окт-2014 22:25

[Профиль]  [ЛС] 

nasri91 ®

Стаж: 4 года 11 месяцев

Сообщений: 48

Симпатии: 1

Вечером

Создавать темы 09-Окт-2014 16:18

[Профиль]  [ЛС] 

BrBenjamiN

Стаж: 6 лет 7 месяцев

Сообщений: 25

Симпатии: 1

дайте скачать

Создавать темы 06-Май-2016 09:15

[Профиль]  [ЛС] 
Показать сообщения:    
Ответить на тему

Текущее время: 15-Дек 21:09

Часовой пояс: UTC + 5



Вы не можете начинать темы
Вы не можете отвечать на сообщения
Вы не можете редактировать свои сообщения
Вы не можете удалять свои сообщения
Вы не можете голосовать в опросах
Вы не можете прикреплять файлы к сообщениям
Вы не можете скачивать файлы