Ледниковый период Квадрология - Ice age Quadrology (Крис Уэдж, Карлос Салдана, Майк Тёрмайер, Стив Мартино) [2002-2006-2009-2012 г.г, Мультфильм / Комедия / Приключения / Семейный, DVDRip, BDRip]

Ответить на тему
 

Kubaev_Muhiddin ®

Стаж: 6 лет 8 месяцев

Сообщений: 104

Симпатии: 34

Ледниковый период - Ice age
Год выпуска: 2002
Страна: США
Жанр: Мультфильм / Комедия / Приключения / Семейный
Продолжительность: 01:21:10
Перевод: Профессиональный (полное дублирование)
Режиссер: Крис Уэдж, Карлос Салдана
Сценарий: Майкл Дж. Уилсон, Майкл Берг, Питер Экерман
Продюсер: Лори Форте, Джон С. Донкин, Кристофер Меледандри
Премьера в мире: 12 марта 2002
Бюджет: 59 000 000 $
Сборы в США 176 387 405 $
Сборы в мире + 206 871 808 $ = 383 259 213 $
В ролях: Рэй Романо, Джон Легуизамо, Дэнис Лири, Горан Вишнич, Джек Блэк, Седрик «Развлекатель», Стивен Рут, Дидрих Бадер, Алан Тьюдик, Лорри Бэгли
Роли дублировали: Степан Старчиков, Антон Комолов, Александр Груздев, Владимир Радченко, Илья Бледный
Описание: Веселые и опасные приключения героев. 20 тыс. лет назад. Чтобы избежать приближающегося из-за наступления ледникового периода холода, животные мигрируют на юг. Однако некоторые из них все-таки решают остаться — одинокий, угрюмый мамонт Манфред, а также бесшабашный ленивец Сид.
Случайно эта парочка наталкивается на человеческого детеныша. Они решаются вернуть его людям и отправляются в путешествие. По пути они встречают саблезубого хитрого тигра. И теперь этой веселой компании предстоят забавные приключения!
Качество: DVDRip
Формат: AVI
Видео кодек: XVID
Аудио кодек: AC-3
Видео: Xvid 720x384 23.976 fps 1 789 kbps
Аудио #1: Dolby AC3 48000 Hz 6ch 384 kbps
Аудио #2: Dolby AC3 48000 Hz 6ch 384 kbps
Субтитр: SSA (Sub Station Alpha) Lossless Russian

Медиа инфо

Video
ID : 0
Format : MPEG-4 Visual
Format profile : Advanced [email protected]
Format settings, BVOP : 1
Format settings, QPel : No
Format settings, GMC : No warppoints
Format settings, Matrix : Custom
Codec ID : XVID
Codec ID/Hint : XviD
Duration : 1h 21mn
Bit rate : 1 789 Kbps
Width : 720 pixels
Height : 384 pixels
Display aspect ratio : 1.85:1
Frame rate : 23.976 fps
Color space : YUV
Chroma subsampling : 4:2:0
Bit depth : 8 bits
Scan type : Progressive
Compression mode : Lossy
Bits/(Pixel*Frame) : 0.270
Stream size : 1.01 GiB (70%)
Writing library : XviD 1.2.1 (UTC 2008-12-04)
Audio #1
ID : 1
Format : AC-3
Format/Info : Audio Coding 3
Mode extension : CM (complete main)
Format settings, Endianness : Big
Codec ID : 2000
Duration : 1h 21mn
Bit rate mode : Constant
Bit rate : 384 Kbps
Channel(s) : 6 channels
Channel positions : Front: L C R, Side: L R, LFE
Sampling rate : 48.0 KHz
Bit depth : 16 bits
Compression mode : Lossy
Stream size : 223 MiB (15%)
Alignment : Split accross interleaves
Interleave, duration : 42 ms (1.00 video frame)
Interleave, preload duration : 500 ms
Audio #2
ID : 2
Format : AC-3
Format/Info : Audio Coding 3
Mode extension : CM (complete main)
Format settings, Endianness : Big
Codec ID : 2000
Duration : 1h 21mn
Bit rate mode : Constant
Bit rate : 384 Kbps
Channel(s) : 6 channels
Channel positions : Front: L C R, Side: L R, LFE
Sampling rate : 48.0 KHz
Bit depth : 16 bits
Compression mode : Lossy
Stream size : 223 MiB (15%)
Alignment : Split accross interleaves
Interleave, duration : 42 ms (1.00 video frame)
Interleave, preload duration : 500 ms

Скриншоты



Ледниковый период 2 Глобальное потепление - Ice age 2 The meltdown
Год выпуска: 2006
Страна: США
Жанр: Мультфильм / Комедия / Приключения / Семейный
Продолжительность: 01:26:53
Перевод: Профессиональный (полное дублирование)
Режиссер: Карлос Салдана
Сценарий: Питер Галк, Джерри Суоллоу, Джим Хехт
Продюсер: Лори Форте, Боб Гордон, Кристофер Меледандри
Премьера в мире: 1 марта 2006
Бюджет: 80 000 000 $
Сборы в США 195 330 621 $
Сборы в мире + 460 057 537 $ = 655 388 158 $
В ролях: Рэй Романо, Джон Легуизамо, Дэнис Лири, Шонн Уильям Скотт, Джош Пек, Куин Латифа, Уилл Арнетт, Джей Лено, Крис Уэдж, Питер Экерман
Роли дублировали: Степан Старчиков, Антон Комолов, Александр Груздев, Андрей Бархударов, Илья Бледный
Описание: Саблезубый тигр Диего, мамонт Манфред, грызун Скрэт и ленивец Сид дожили до глобального потепления. С одной стороны, это круто — ледяная пустыня превратилась в настоящий аквапарк, где можно принимать теплые ванны и резвиться под сенью струй. С другой — не очень: стремительный паводок идет прямиком к их родной долине.
Теперь ответственным животным придется спасать соседей от потопа, что довольно проблематично — строить ковчег совершенно не из чего, кроме как из талого снега. Но не беспокойтесь — эвакуация разнообразной живности в сухое место пройдет не менее суетливо, смешно и успешно, чем и прошлая операция по возвращению человеческого детеныша в лоно семьи.
Качество: DVDRip
Формат: AVI
Видео кодек: DX50
Аудио кодек: AC-3
Видео: DivX 5 720x384 25 fps 1 895 kbps
Аудио: Dolby AC3 48000 Hz 6ch 384 kbps

Медиа инфо

Video
ID : 0
Format : MPEG-4 Visual
Format settings, BVOP : 1
Format settings, QPel : No
Format settings, GMC : No warppoints
Format settings, Matrix : Default (H.263)
Muxing mode : Packed bitstream
Codec ID : DX50
Codec ID/Hint : DivX 5
Duration : 1h 26mn
Bit rate : 1 895 Kbps
Width : 720 pixels
Height : 384 pixels
Display aspect ratio : 1.85:1
Frame rate : 25.000 fps
Color space : YUV
Chroma subsampling : 4:2:0
Bit depth : 8 bits
Scan type : Progressive
Compression mode : Lossy
Bits/(Pixel*Frame) : 0.274
Stream size : 1.15 GiB (83%)
Writing library : DivX 6.4.0 (UTC 2006-10-03)
Audio
ID : 1
Format : AC-3
Format/Info : Audio Coding 3
Mode extension : CM (complete main)
Format settings, Endianness : Big
Codec ID : 2000
Duration : 1h 26mn
Bit rate mode : Constant
Bit rate : 384 Kbps
Channel(s) : 6 channels
Channel positions : Front: L C R, Side: L R, LFE
Sampling rate : 48.0 KHz
Bit depth : 16 bits
Compression mode : Lossy
Stream size : 239 MiB (17%)
Alignment : Split accross interleaves
Interleave, duration : 96 ms (2.40 video frames)
Interleave, preload duration : 96 ms
Language : Russian

Скриншоты



Ледниковый период 3 Эра динозавров - Ice age 3 Dawn of the Dinosaurs
Год выпуска: 2009
Страна: США
Жанр: Мультфильм / Комедия / Приключения / Семейный
Продолжительность: 01:34:03
Перевод: Профессиональный (полное дублирование)
Режиссер: Карлос Салдана, Майк Тёрмайер
Сценарий: Питер Экерман, Майкл Берг, Йони Бреннер
Продюсер: Джон С. Донкин, Лори Форте, Крис Уэдж
Премьера в мире: 1 июля 2009
Бюджет: 90 000 000 $
Сборы в США 196 573 705 $
Сборы в мире + 690 110 816 $ = 886 684 521 $
В ролях: Рэй Романо, Джон Легуизамо, Саймон Пегг, Куин Латифа, Шонн Уильям Скотт, Джош Пек, Дэнис Лири, Крис Уэдж, Юнис Чо, Карен Дишер
Роли дублировали: Степан Старчиков, Антон Комолов, Вадим Галыгин, Ольга Шелест, Андрей Бархударов
Описание: К событиям «Ледникового периода 3» жизнь главных героев мультфильма потерпела некоторые изменения. Мамонты Манфред и Элли ожидают появление на свет своего детёныша; саблезубый тигр Диего впал в раздумье о том, не стал ли он слишком «мягкотелым» в компании своих друзей; ленивец Сид, бредя желанием создать собственное племя, решился украсть несколько яиц динозавра. Отправившись спасать Сида, друзья попадают в таинственный растительный мир, скрытый под толщами льда, где они сталкиваются с динозаврами и агрессивной окружающей средой, а также знакомятся с охотником на динозавров — лаской по имени Бак.
Крысобелка Скрэт (который вновь случайным образом стал виной глобальной проблемы, открыв путь в мир динозавров) по-прежнему гоняется за своим орехом, но на этот раз у него появился конкурент — крысобелка Скрэтти, однако, одновременно с одержимой борьбой за орех, эти двое влюбляются друг в друга.
Качество: BDRip
Формат: MKV
Видео кодек: V_MPEG4/ISO/AVC
Аудио кодек: A_DTS (Digital Theater Systems)
Видео: MPEG4 Video (H264) 1280x688 23.976 fps 3 510 kbps
Аудио #1: DTS 48000 Hz 6ch 755 kbps Russian
Аудио #2: DTS 48000 Hz 6ch 1 310 kbps English
Субтитр: UTF-8 Plain Text Russian

Медиа инфо

Video
ID : 1
Format : AVC
Format/Info : Advanced Video Codec
Format profile : [email protected]
Format settings, CABAC : Yes
Format settings, ReFrames : 8 frames
Codec ID : V_MPEG4/ISO/AVC
Duration : 1h 34mn
Bit rate : 3 510 Kbps
Width : 1 280 pixels
Height : 688 pixels
Display aspect ratio : 1.85:1
Frame rate mode : Constant
Frame rate : 23.976 fps
Color space : YUV
Chroma subsampling : 4:2:0
Bit depth : 8 bits
Scan type : Progressive
Bits/(Pixel*Frame) : 0.166
Stream size : 2.23 GiB (59%)
Writing library : x264 core 68 r1183M f21daff
Encoding settings : cabac=1 / ref=8 / deblock=1:1:1 / analyse=0x3:0x133 / me=umh / subme=9 / psy_rd=0.6:0.0 / mixed_ref=1 / me_range=32 / chroma_me=1 / trellis=2 / 8x8dct=1 / cqm=0 / deadzone=21,11 / chroma_qp_offset=-2 / threads=8 / nr=0 / decimate=1 / mbaff=0 / bframes=3 / b_pyramid=1 / b_adapt=2 / b_bias=0 / direct=3 / wpredb=1 / keyint=250 / keyint_min=25 / scenecut=40 / rc=2pass / bitrate=3510 / ratetol=1.0 / qcomp=0.60 / qpmin=10 / qpmax=51 / qpstep=4 / cplxblur=20.0 / qblur=0.5 / vbv_maxrate=50000 / vbv_bufsize=50000 / ip_ratio=1.40 / pb_ratio=1.30 / aq=0
Language : English
Default : Yes
Forced : No
Audio #1
ID : 2
Format : DTS
Format/Info : Digital Theater Systems
Codec ID : A_DTS
Duration : 1h 34mn
Bit rate mode : Constant
Bit rate : 755 Kbps
Channel(s) : 6 channels
Channel positions : Front: L C R, Side: L R, LFE
Sampling rate : 48.0 KHz
Bit depth : 24 bits
Compression mode : Lossy
Stream size : 508 MiB (13%)
Title : дубляж
Language : Russian
Default : No
Forced : No
Audio #2
ID : 3
Format : DTS
Format/Info : Digital Theater Systems
Format profile : ES
Codec ID : A_DTS
Duration : 1h 34mn
Bit rate mode : Constant
Bit rate : 1 510 Kbps
Channel(s) : 6 channels
Channel positions : Front: L C R, Side: L R, LFE
Sampling rate : 48.0 KHz
Bit depth : 24 bits
Compression mode : Lossy
Stream size : 1 016 MiB (26%)
Language : English
Default : Yes
Forced : No
Text
ID : 4
Format : UTF-8
Codec ID : S_TEXT/UTF8
Codec ID/Info : UTF-8 Plain Text
Language : Russian
Default : Yes
Forced : No

Скриншоты



Ледниковый период 4 Континентальный дрейф - Ice age 4 Continental drift
Год выпуска: 2012
Страна: США
Жанр: Мультфильм / Комедия / Приключения / Семейный
Продолжительность: 01:27:45
Перевод: Профессиональный (полное дублирование)
Режиссер: Стив Мартино, Майк Тёрмайер
Сценарий: Майкл Берг, Джейсон Фучс, Лори Форте
Продюсер: Джон С. Донкин, Лори Форте, Карлос Салдана
Премьера в мире: 26 июня 2012
Бюджет: 95 000 000 $
Сборы в США 161 321 843 $
Сборы в мире + 714 026 763 $ = 875 348 606 $
В ролях: Рэй Романо, Джон Легуизамо, Куин Латифа, Дэнис Лири, Джош Пек, Питер Динклэйдж, Кеке Палмер, Дженнифер Лопез, Ник Фрост, Азиз Ансари
Роли дублировали: Степан Старчиков, Антон Комолов, Ольга Шелест, Александр Груздев, Илья Бледный
Описание: После приключений под землей прошло семь лет. Случился дрейф континентов. Главные герои мультфильма, отделённые от стада, вынуждены использовать айсберг в качестве плота. Они пересекают океан и попадают в неизвестные им ранее земли с экзотическими животными и пиратами, враждебно настроенными к ним. Скрэту удаётся получить свой жёлудь, но он перемещается в новые для него земли.
Качество: DVDRip
Формат: MPEG-4 Visual
Видео кодек: XVID
Аудио кодек: AC-3
Видео: Xvid 720x304 23.976 fps 1 906 kbps
Аудио: Dolby AC3 48000 Hz 6ch 448 kbps

Медиа инфо

Video
ID : 0
Format : MPEG-4 Visual
Format profile : Advanced [email protected]
Format settings, BVOP : 1
Format settings, QPel : No
Format settings, GMC : No warppoints
Format settings, Matrix : Custom
Codec ID : XVID
Codec ID/Hint : XviD
Duration : 1h 27mn
Bit rate : 1 906 Kbps
Width : 720 pixels
Height : 304 pixels
Display aspect ratio : 2.35:1
Frame rate : 23.976 fps
Color space : YUV
Chroma subsampling : 4:2:0
Bit depth : 8 bits
Scan type : Progressive
Compression mode : Lossy
Bits/(Pixel*Frame) : 0.363
Stream size : 1.17 GiB (81%)
Writing library : XviD 65
Audio
ID : 1
Format : AC-3
Format/Info : Audio Coding 3
Mode extension : CM (complete main)
Format settings, Endianness : Big
Codec ID : 2000
Duration : 1h 27mn
Bit rate mode : Constant
Bit rate : 448 Kbps
Channel(s) : 6 channels
Channel positions : Front: L C R, Side: L R, LFE
Sampling rate : 48.0 KHz
Bit depth : 16 bits
Compression mode : Lossy
Stream size : 281 MiB (19%)
Alignment : Split accross interleaves
Interleave, duration : 42 ms (1.00 video frame)
Interleave, preload duration : 500 ms

Скриншоты




Создавать темы 25-Фев-2013 01:36

[Профиль]  [ЛС] 

Djaxongir

Стаж: 4 года

Сообщений: 1

пожалуйста помоги скачать Ледниковый период квадралогию

Создавать темы 04-Окт-2014 20:44

[Профиль]  [ЛС] 
Показать сообщения:    
Ответить на тему

Текущее время: 21-Окт 21:01

Часовой пояс: UTC + 5



Вы не можете начинать темы
Вы не можете отвечать на сообщения
Вы не можете редактировать свои сообщения
Вы не можете удалять свои сообщения
Вы не можете голосовать в опросах
Вы не можете прикреплять файлы к сообщениям
Вы не можете скачивать файлы