Пауки 3D / Spiders (Тибор Такач) [2013 г., Триллер, HDTVRip]

Страницы :  1, 2  След.

Ответить на тему
 

RRRRD96 ®

Стаж: 5 лет 2 месяца

Сообщений: 56

Пауки 3D / Spiders«Eight Legs Three Dimensions One Disaster.» Год выпуска: 2013
Страна: США
Жанр: Триллер
Продолжительность: 89 мин./01:29:39
Перевод: Любительский (одноголосый)
Режиссер: Тибор Такач
В ролях: Патрик Малдун, Криста Кэмпбелл, Уильям Хоуп, Шелли Варод
Описание: Кинокартина Пауки 3D (2013) - Очередной фильм ужасов, который рассказывает нам про страшных насекомых. На сей раз, как можно было понять из названия, речь идет о настоящих пауках. Несмотря на то, что отечественные прокатчики решили добавить в название фильма 3D, в оригинале этот фильм называется просто Пауки. И если быть честными до конца, то как раз простых пауков тут хватает с головой. Простых, да только размером с небоскреб. Далее поговорим с вами о сюжете фильма Пауки 3D, смотреть онлайн который вы можете на этом сайте, от режиссера Тибора Такача.
В самом начале в фильме Пауки 3D (2013) нам рассказывают о том, что Россия собирается утопить старую космическую станцию "МИР". Собственно, так и поступают. Но, после того, как вроде бы все уже забывают об этом уничтожении огромной станции, в одном из Нью-Йоркских метро из-за странного вируса, что прибыл из космоса, начинают появляться огромные пауки. Ученые пытаются изучить данный феномен, но очень скоро оказывается, что изучать что либо просто нет времени. В фильме Пауки 3D, смотреть онлайн бесплатно который мы предлагаем вам на этом сайте, начинается самое страшное - на улицы Нью-Йорка выползают огромные мохнатые пауки, которые с невероятной скоростью начинают размножаться и пожирать людей!
Доп. информация: сценарий: Джозеф Фарруджия, Тибор Такач, Дастин Варбертон
продюсер: Боаз Дэвидсон, Дэнни Димборт, Лати Гробман, ...
оператор: Лоренцо Сенаторе
композитор: Джозеф Конлан
художник: Кес Бонне, Стоичкова Джасмина, Джасмина Васильева-Стоичкова
монтаж: Джо Пленис
рейтинг MPAA: детям до 13 лет просмотр не желателен
Качество: HDTVRip
Формат: AVI
Видео кодек: Другой MPEG4
Аудио кодек: MP3
Видео: 1920x1080,Format : MPEG-4 Visual,Bit rate : 7 054 Kbps,Frame rate : 25.000 fps,Bit depth : 8 bits
Аудио: Format : MPEG Audio,Bit rate : 320 Kbps,Sampling rate : 44.1 KHz,Channel(s) : 2 channels

Скриншоты



Video
ID : 0
Format : MPEG-4 Visual
Format profile : [email protected]
Format settings, BVOP : No
Format settings, QPel : No
Format settings, GMC : No warppoints
Format settings, Matrix : Default (H.263)
Codec ID : FMP4
Duration : 1h 29mn
Bit rate : 7 054 Kbps
Width : 1 920 pixels
Height : 1 080 pixels
Display aspect ratio : 16:9
Frame rate : 25.000 fps
Color space : YUV
Chroma subsampling : 4:2:0
Bit depth : 8 bits
Scan type : Progressive
Compression mode : Lossy
Bits/(Pixel*Frame) : 0.136
Stream size : 4.42 GiB (96%)
Writing library : Lavc52.27.0
Audio
ID : 1
Format : MPEG Audio
Format version : Version 1
Format profile : Layer 3
Mode : Joint stereo
Codec ID : 55
Codec ID/Hint : MP3
Duration : 1h 29mn
Bit rate mode : Constant
Bit rate : 320 Kbps
Channel(s) : 2 channels
Sampling rate : 44.1 KHz
Compression mode : Lossy
Stream size : 205 MiB (4%)
Alignment : Aligned on interleaves
Interleave, duration : 26 ms (0.65 video frame)
Writing library : LAME3.98


Последний раз редактировалось: RRRRD96 (2013-03-08 09:38), всего редактировалось 23 раз(а)

Создавать темы 25-Фев-2013 10:42

[Профиль]  [ЛС] 

hard92

Стаж: 5 лет

Сообщений: 60

тв3?

Создавать темы 25-Фев-2013 11:30

[Профиль]  [ЛС] 

фаррух

Стаж: 6 лет 11 месяцев

Сообщений: 9

чё-то качество не смотрибельное

Создавать темы 25-Фев-2013 12:45

[Профиль]  [ЛС] 

jamik1003

Стаж: 5 лет 8 месяцев

Сообщений: 60

Симпатии: 3

По моему размер файла и качество не соответствуют друг другу.)))

Создавать темы 25-Фев-2013 14:22

[Профиль]  [ЛС] 

RRRRD96 ®

Стаж: 5 лет 2 месяца

Сообщений: 56

hard92, фаррух, CHARLIE NOF, jamik1003, это вам так кажется. Когда скачаете увидите.

Создавать темы 25-Фев-2013 15:13

[Профиль]  [ЛС] 

RRRRD96 ®

Стаж: 5 лет 2 месяца

Сообщений: 56

РАЗДАЮ С 8:00 до 22:00.


Последний раз редактировалось: RRRRD96 (2013-04-26 09:44), всего редактировалось 1 раз

Создавать темы 25-Фев-2013 15:15

[Профиль]  [ЛС] 

overkill

Стаж: 8 лет 4 месяца

Сообщений: 33

Первый скрин убил))))

Создавать темы 25-Фев-2013 15:31

[Профиль]  [ЛС] 

skydream

Стаж: 4 года 9 месяцев

Сообщений: 65

скриншоты с камрипа чтоли)))))

Создавать темы 25-Фев-2013 15:51

[Профиль]  [ЛС] 

vangal

Стаж: 5 лет

Сообщений: 4

качество. желает лучшего

Создавать темы 25-Фев-2013 16:28

[Профиль]  [ЛС] 

sailer

Стаж: 8 лет 2 месяца

Сообщений: 37

Симпатии: 17

skydream, ну вроде в зд в очках мб будет круто смотреться)

Создавать темы 25-Фев-2013 17:38

[Профиль]  [ЛС] 

Roman92

Стаж: 5 лет 10 месяцев

Сообщений: 19

По моему размер файла и качество не соответствуют друг другу.)))
согласен качество реально г...

Создавать темы 01-Мар-2013 20:02

[Профиль]  [ЛС] 

bashi

Стаж: 5 лет 9 месяцев

Сообщений: 42

пачиму никачайт

Создавать темы 02-Мар-2013 11:15

[Профиль]  [ЛС] 

MRBEANNEW

Стаж: 5 лет 1 месяц

Сообщений: 3

английкая дорожка имеется?

Создавать темы 02-Мар-2013 16:37

[Профиль]  [ЛС] 

RRRRD96 ®

Стаж: 5 лет 2 месяца

Сообщений: 56

MRBEANNEW, нет

Создавать темы 03-Мар-2013 16:05

[Профиль]  [ЛС] 

RaKe

Стаж: 6 лет 7 месяцев

Сообщений: 12

Симпатии: 5

По моему размер файла и качество не соответствуют друг другу.)))
согласен качество реально г...
Во вы даёте, написано же "Пауки 3D", а значит фильм нужно смотреть в 3D очках, тогда и будет отличное качество

Создавать темы 05-Мар-2013 12:58

[Профиль]  [ЛС] 
Показать сообщения:    
Ответить на тему

Текущее время: 23-Ноя 10:42

Часовой пояс: UTC + 5



Вы не можете начинать темы
Вы не можете отвечать на сообщения
Вы не можете редактировать свои сообщения
Вы не можете удалять свои сообщения
Вы не можете голосовать в опросах
Вы не можете прикреплять файлы к сообщениям
Вы не можете скачивать файлы