Новый Comedy Club. Выпуск 302 [2013 г., Комедия, HDTVRip]

Ответить на тему
 

Оскар ®

Стаж: 4 года 7 месяцев

Сообщений: 15

Новый Comedy Club. Выпуск 302
Год выпуска: 2013
Страна: Россия
Жанр: Комедия
Продолжительность: 00:22:50
Описание: Гарик Мартиросян и Павел Воля
- Олег Тарнопольский, Тигран Кеосаян, Лариса Долина, Матрёшки girls
Дуэт имени Чехова
- в элитном салоне красоты
Руслан Белый
- народ чрезвычайно зажрался
Зураб Матуа, Андрей Аверин и Дмитрий «Люсёк» Сорокин
- песня настоящих москвичей
Гарик Мартиросяни Вадим Галыгин
- программа «Криминальная Россия» с руководителем отдела по клубным преступлениям
Павел Воля
- о словах-обращениях к людям
Качество: HDTVRip
Формат: MPEG
Видео кодек: x264
Аудио кодек: AAC
Видео: 600Kbps, 640x360(16:9),at 25.000fps
Аудио: 96.0Kbps, 44.1KHz,2 Channels

Скриншоты

медиа инфо

Format : MPEG-4
Format profile : Base Media
Codec ID : isom
File size : 116 MiB
Duration : 22mn 50s
Overall bit rate : 709 Kbps
Writing application : Lavf54.22.100
Video
ID : 1
Format : AVC
Format/Info : Advanced Video Codec
Format profile : [email protected]
Format settings, CABAC : Yes
Format settings, ReFrames : 5 frames
Codec ID : avc1
Codec ID/Info : Advanced Video Coding
Duration : 22mn 50s
Bit rate : 600 Kbps
Width : 640 pixels
Height : 360 pixels
Display aspect ratio : 16:9
Original display aspect ratio : 16:9
Frame rate mode : Constant
Frame rate : 25.000 fps
Color space : YUV
Chroma subsampling : 4:2:0
Bit depth : 8 bits
Scan type : Progressive
Bits/(Pixel*Frame) : 0.104
Stream size : 98.7 MiB (85%)
Writing library : x264 core 125 r2 d9d2288
Audio
ID : 2
Format : AAC
Format/Info : Advanced Audio Codec
Format profile : LC
Codec ID : 40
Duration : 22mn 50s
Bit rate mode : Constant
Bit rate : 96.0 Kbps
Channel(s) : 2 channels
Channel positions : Front: L R
Sampling rate : 44.1 KHz
Compression mode : Lossy
Delay relative to video : 80ms
Stream size : 15.7 MiB (14%)


Последний раз редактировалось: Оскар (2013-02-27 12:13), всего редактировалось 1 раз

Создавать темы 26-Фев-2013 16:49

[Профиль]  [ЛС] 

Оскар ®

Стаж: 4 года 7 месяцев

Сообщений: 15

Раздача 01.03.2013 12:00 будет извините

Создавать темы 27-Фев-2013 16:43

[Профиль]  [ЛС] 

Константин

Стаж: 5 лет 8 месяцев

Сообщений: 17

ну вот

Создавать темы 28-Фев-2013 19:44

[Профиль]  [ЛС] 

park

Стаж: 4 года 7 месяцев

Сообщений: 4

это последний?

Создавать темы 07-Мар-2013 10:02

[Профиль]  [ЛС] 

Константин

Стаж: 5 лет 8 месяцев

Сообщений: 17

не соответсвует описанию
это Камеди Эксклюзив!!!
это не 302!!!

Создавать темы 07-Мар-2013 19:24

[Профиль]  [ЛС] 

Константин

Стаж: 5 лет 8 месяцев

Сообщений: 17

ПРОВЕРЕНО????

Создавать темы 07-Мар-2013 19:26

[Профиль]  [ЛС] 

Оскар ®

Стаж: 4 года 7 месяцев

Сообщений: 15

Константин, да 100%

Создавать темы 10-Мар-2013 09:18

[Профиль]  [ЛС] 

Оскар ®

Стаж: 4 года 7 месяцев

Сообщений: 15

park, нет ешо выходить

Создавать темы 10-Мар-2013 09:18

[Профиль]  [ЛС] 

PaXa

Стаж: 5 лет 8 месяцев

Сообщений: 40

Симпатии: 2

я один не вижу кнопку скачать??!

Создавать темы 30-Апр-2013 12:27

[Профиль]  [ЛС] 

Константин

Стаж: 5 лет 8 месяцев

Сообщений: 17

нет. мы вместе не видим

Создавать темы 09-Май-2013 15:31

[Профиль]  [ЛС] 
Показать сообщения:    
Ответить на тему

Текущее время: 21-Сен 17:28

Часовой пояс: UTC + 5



Вы не можете начинать темы
Вы не можете отвечать на сообщения
Вы не можете редактировать свои сообщения
Вы не можете удалять свои сообщения
Вы не можете голосовать в опросах
Вы не можете прикреплять файлы к сообщениям
Вы не можете скачивать файлы