Лабиринт / Labirent / Labyrinth (Толга Орнек / Tolga Örnek) [2011, Турция, боевик, драма, DVDRip-AVC] VO (tornado) + orig + sub(rus)

Ответить на тему
 

Netman ®

Стаж: 4 года 10 месяцев

Сообщений: 8


Лабиринт / Labirent
- Год выпуска: 2011
Страна: Турция, Германия
Жанр: боевик, драма
Продолжительность: 01:58:47
Перевод: Одноголосый закадровый ("TornadoArt")
Cубтитры: русские (simurqq)
Оригинальная аудиодорожка: турецкий
Режиссер: Толга Орнек / Tolga Örnek
В ролях: Тимучин Эсен, Мельтем Джумбул, Сарп Аккая, Рыза Коджаоглу, Озан Билен, Мартин Тёрнер-Описание: Мощный взрыв гремит на одной из оживлённых улиц Стамбула, унеся жизни 95 человек. За терактом стоит новая террористическая организация. «Лабиринт» — кодовое название операции турецких спецслужб для предотвращения ещё более разрушительной атаки, предпринимаемой в целях нагнетания хаоса в единственной демократической мусульманской стране региона, а также, чтобы нарушить хрупкий баланс сил на Ближнем Востоке. После первой атаки Турция становится полем боевых действий для террористов и офицеров спецслужб Турции, Британии и США.
Это история о небольшой группе офицеров турецкой разведки, старающихся предотвратить попытку террористической группировки осуществить коварный план по организации второго взрыва на территории Турции. Руководит группой молодой, но опытный командир по имени Фикрет, не имеющий за плечами ничего кроме трудной карьеры офицера, а также его коллега Рейхан — одна из лучших офицеров разведки и, к тому же, мать, старающаяся найти золотую середину между воспитанием четырёхлетней дочери и карьерой офицера. Несмотря на внешнее безразличие Фикрета, их общая борьба и суровый опыт совместной работы сближают их.
-- -Качество: DVDRip-AVC
Формат: MKV
Видео кодек: H.264
Аудио кодек: AC3
Видео: x264, PAL, 720x404 (16:9), 25 fps, 1652 kbit/s
Аудио 1: MPEG Layer 3, 48.0 kHz, 128 kbit/s, 2h - Russian [VO] ("TornadoArt")
Аудио 2: AC3, 48.0 kHz, 448 kbit/s, 6h - original
Формат субтитров: softsub (SRT)-

MediaInfo

General
Unique ID : 227324283026218064879334112465508755564 (0xAB05107AFD0CE400BAF1942F3809E86C)
Complete name : D:\Downloads\_Upload\Labirent.DVDRip-AVC.AC3.VO.mkv
Format : Matroska
Format version : Version 2
File size : 1.89 GiB
Duration : 1h 58mn
Overall bit rate : 2 273 Kbps
Encoded date : UTC 2012-12-09 13:57:28
Writing application : mkvmerge v5.8.0 ('No Sleep / Pillow') built on Sep 2 2012 15:37:04
Writing library : libebml v1.2.3 + libmatroska v1.3.0
Video
ID : 1
Format : AVC
Format/Info : Advanced Video Codec
Format profile : [email protected]
Format settings, CABAC : Yes
Format settings, ReFrames : 7 frames
Codec ID : V_MPEG4/ISO/AVC
Duration : 1h 58mn
Bit rate : 1 652 Kbps
Width : 720 pixels
Height : 404 pixels
Display aspect ratio : 16:9
Frame rate : 25.000 fps
Color space : YUV
Chroma subsampling : 4:2:0
Bit depth : 8 bits
Scan type : Progressive
Bits/(Pixel*Frame) : 0.227
Stream size : 1.37 GiB (73%)
Writing library : x264 core 125 r2200 999b753
Encoding settings : cabac=1 / ref=7 / deblock=1:-1:0 / analyse=0x3:0x133 / me=umh / subme=10 / psy=1 / psy_rd=1.00:0.00 / mixed_ref=1 / me_range=24 / chroma_me=1 / trellis=2 / 8x8dct=1 / cqm=0 / deadzone=21,11 / fast_pskip=0 / chroma_qp_offset=-2 / threads=6 / lookahead_threads=1 / sliced_threads=0 / nr=0 / decimate=1 / interlaced=0 / bluray_compat=0 / constrained_intra=0 / bframes=12 / b_pyramid=2 / b_adapt=2 / b_bias=0 / direct=1 / weightb=1 / open_gop=0 / weightp=2 / keyint=250 / keyint_min=25 / scenecut=40 / intra_refresh=0 / rc_lookahead=60 / rc=crf / mbtree=1 / crf=18.0 / qcomp=0.60 / qpmin=0 / qpmax=69 / qpstep=4 / ip_ratio=1.40 / aq=1:1.00
Default : Yes
Forced : No
Audio #1
ID : 2
Format : MPEG Audio
Format version : Version 1
Format profile : Layer 3
Codec ID : A_MPEG/L3
Codec ID/Hint : MP3
Duration : 1h 58mn
Bit rate mode : Constant
Bit rate : 128 Kbps
Channel(s) : 2 channels
Sampling rate : 44.1 KHz
Compression mode : Lossy
Stream size : 109 MiB (6%)
Title : VO, Tornado
Language : Russian
Default : No
Forced : No
Audio #2
ID : 3
Format : AC-3
Format/Info : Audio Coding 3
Mode extension : CM (complete main)
Codec ID : A_AC3
Duration : 1h 58mn
Bit rate mode : Constant
Bit rate : 448 Kbps
Channel(s) : 6 channels
Channel positions : Front: L C R, Side: L R, LFE
Sampling rate : 48.0 KHz
Bit depth : 16 bits
Compression mode : Lossy
Stream size : 381 MiB (20%)
Title : orig
Language : Turkish
Default : Yes
Forced : No
Text
ID : 4
Format : UTF-8
Codec ID : S_TEXT/UTF8
Codec ID/Info : UTF-8 Plain Text
Language : Russian
Default : Yes
Forced : No

Скриншоты






Создавать темы 26-Фев-2013 21:05

[Профиль]  [ЛС] 

Sh0cky

Стаж: 5 лет 2 месяца

Сообщений: 74

Симпатии: 14

Дайте газу

Создавать темы 01-Мар-2013 14:15

[Профиль]  [ЛС] 
Показать сообщения:    
Ответить на тему

Текущее время: 19-Ноя 02:31

Часовой пояс: UTC + 5



Вы не можете начинать темы
Вы не можете отвечать на сообщения
Вы не можете редактировать свои сообщения
Вы не можете удалять свои сообщения
Вы не можете голосовать в опросах
Вы не можете прикреплять файлы к сообщениям
Вы не можете скачивать файлы