Кто я? / Who am i? / Wo shi shei (Джеки Чан, Бенни Чан) [1998 г., Боевик / Приключения, HDRip, 720p, Dub+Chin+Eng, AC3 5.1]

Ответить на тему
 

Robot-IX ®

Стаж: 5 лет 7 месяцев

Сообщений: 223

Симпатии: 9

Кто я? / Who am i? / Wo shi shei-- Год выпуска: 1998
Выпушено: Китай-Гонконг, Golden Harvest Company Ltd
Жанр: боевик, триллер, комедия, приключения, ...
Продолжительность: 01:47:58
Перевод: Профессиональный (полное дублирование)
Оригинальная аудиодорожка: есть (китайский) + английский
Режиссёр: Джеки Чан, Бенни Чан
Сценарий: Джеки Чан, Сьюзэн Чан, Ли Рейнольдс
Продюссер: Барби Танг, Леонард Хо, Джонни Ли, ...-В ролях: Джеки Чан, Мишель Ферре, Мираи Ямамото, Рон Смержак,
Эд Нельсон, Том Помперт, Глори Саймон, Фред ван Дитмарш, Фриц Кромменхёк, Дик Риенстра
...
Описание:
Группа спецназа, работающая под прикрытием ЦРУ, направляется на задание по вывозу энергетического тела, которое было найдено учеными в африканских джунглях. По окончании операции всю группу пытаются ликвидировать.
Один из солдат, выживший после авиакатастрофы, но потерявший память, пытается бороться со своими мыслями и вспомнить, кто он. На пути к истине ему мешают, и он не знает, кому можно верить.
-Рейтинг:
kinopoisk.ru: 7.707 (14 913)
imdb.com: 6,6 (16 917)
MPAA: PG13 - Детям до 13 лет просмотр не желателен-Качество: HDRip
Формат: MKV
Видео кодек: MPEG-4 AVC
Аудио кодек: AC-3
Видео: 1280x720, Bitrate: 5 332 Kbps, Frame rate: 23.976 fps, Aspect ratio: 16/9
Аудио Russian: AC3 / 6 ch / 48.0 KHz / 448 Kbps - Профессиональный (полное дублирование)
Аудио English: AC3 / 6ch / 48.0 KHz / 384 Kbps - Английский
Аудио Chinese: AC3 / 6ch / 48.0 KHz / 384 Kbps - Китайский

Media Info

General
Unique ID : 204375144565483714677720411632656162782 (0x99C13898BEE26778955DD875813B9FDE)
Complete name : D:\Torent\Kto.ja.1998.x264.HDRip.720p.mkv
Format : Matroska
Format version : Version 4 / Version 2
File size : 4.94 GiB
Duration : 1h 47mn
Overall bit rate : 6 550 Kbps
Encoded date : UTC 2013-02-28 12:33:39
Writing application : mkvmerge v6.0.0 ('Coming Up For Air') built on Jan 20 2013 09:52:00
Writing library : libebml v1.3.0 + libmatroska v1.4.0
Video
ID : 1
Format : AVC
Format/Info : Advanced Video Codec
Format profile : [email protected]
Format settings, CABAC : Yes
Format settings, ReFrames : 8 frames
Codec ID : V_MPEG4/ISO/AVC
Duration : 1h 47mn
Bit rate : 5 332 Kbps
Width : 1 280 pixels
Height : 720 pixels
Display aspect ratio : 16:9
Frame rate : 23.976 fps
Color space : YUV
Chroma subsampling : 4:2:0
Bit depth : 8 bits
Scan type : Progressive
Bits/(Pixel*Frame) : 0.241
Stream size : 3.92 GiB (79%)
Title : Kto.ja.1998.x264.HDRip.(720p)
Writing library : x264 core 67 r1139M 1024283
Encoding settings : cabac=1 / ref=8 / deblock=1:0:0 / analyse=0x3:0x133 / me=hex / subme=6 / psy_rd=1.0:0.0 / mixed_ref=1 / me_range=16 / chroma_me=1 / trellis=1 / 8x8dct=1 / cqm=0 / deadzone=21,11 / chroma_qp_offset=-2 / threads=1 / nr=0 / decimate=1 / mbaff=0 / bframes=3 / b_pyramid=1 / b_adapt=1 / b_bias=0 / direct=1 / wpredb=1 / keyint=250 / keyint_min=25 / scenecut=40 / rc=2pass / bitrate=5332 / ratetol=1.0 / qcomp=0.60 / qpmin=10 / qpmax=51 / qpstep=4 / cplxblur=20.0 / qblur=0.5 / ip_ratio=1.40 / pb_ratio=1.30 / aq=1:1.00
Language : English
Default : Yes
Forced : No
Audio #1
ID : 2
Format : AC-3
Format/Info : Audio Coding 3
Mode extension : CM (complete main)
Format settings, Endianness : Big
Codec ID : A_AC3
Duration : 1h 47mn
Bit rate mode : Constant
Bit rate : 448 Kbps
Channel(s) : 6 channels
Channel positions : Front: L C R, Side: L R, LFE
Sampling rate : 48.0 KHz
Bit depth : 16 bits
Compression mode : Lossy
Stream size : 346 MiB (7%)
Title : Dub DD 5.1 384 Kbps
Language : Russian
Default : Yes
Forced : No
Audio #2
ID : 3
Format : AC-3
Format/Info : Audio Coding 3
Mode extension : CM (complete main)
Format settings, Endianness : Big
Codec ID : A_AC3
Duration : 1h 47mn
Bit rate mode : Constant
Bit rate : 384 Kbps
Channel(s) : 6 channels
Channel positions : Front: L C R, Side: L R, LFE
Sampling rate : 48.0 KHz
Bit depth : 16 bits
Compression mode : Lossy
Stream size : 297 MiB (6%)
Title : Original DD 5.1 384 Kbps
Language : English
Default : No
Forced : No
Audio #3
ID : 4
Format : AC-3
Format/Info : Audio Coding 3
Mode extension : CM (complete main)
Format settings, Endianness : Big
Codec ID : A_AC3
Duration : 1h 47mn
Bit rate mode : Constant
Bit rate : 384 Kbps
Channel(s) : 6 channels
Channel positions : Front: L C R, Side: L R, LFE
Sampling rate : 48.0 KHz
Bit depth : 16 bits
Compression mode : Lossy
Stream size : 297 MiB (6%)
Title : Chin DD 5.1 384 Kbps
Language : Chinese
Default : No
Forced : No

Скриншоты



Последний раз редактировалось: Robot-IX (2013-03-02 22:15), всего редактировалось 2 раз(а)

Создавать темы 28-Фев-2013 18:57

[Профиль]  [ЛС] 

Face

Стаж: 5 лет 5 месяцев

Сообщений: 48

а почему такой размер ?

Создавать темы 28-Фев-2013 18:58

[Профиль]  [ЛС] 

-Schokk

Стаж: 5 лет 7 месяцев

Сообщений: 22

скрины на наш хостинг залей

Создавать темы 28-Фев-2013 19:06

[Профиль]  [ЛС] 

Robot-IX ®

Стаж: 5 лет 7 месяцев

Сообщений: 223

Симпатии: 9

а почему такой размер ?
потомучто это HD привыкайте к правельному видео ))

Создавать темы 28-Фев-2013 19:10

[Профиль]  [ЛС] 

Robot-IX ®

Стаж: 5 лет 7 месяцев

Сообщений: 223

Симпатии: 9

скрины на наш хостинг залей
а ещё что зделать ? господин ....! ))


Последний раз редактировалось: Robot-IX (2013-05-25 23:20), всего редактировалось 1 раз

Создавать темы 28-Фев-2013 19:12

[Профиль]  [ЛС] 

kiparobot

Стаж: 6 лет 9 месяцев

Сообщений: 37

Симпатии: 3

а почему такой размер ?
потомучто:
Видео: 1280x720, Bitrate: 5 332 Kbps, Frame rate: 23.976 fps, Aspect ratio: 16/9
Аудио Russian: AC3 / 6 ch / 48.0 KHz / 448 Kbps - Профессиональный (полное дублирование)
Аудио English: AC3 / 6ch / 48.0 KHz / 384 Kbps - Английский
Аудио Chinese: AC3 / 6ch / 48.0 KHz / 384 Kbps - Китайский

Создавать темы 28-Фев-2013 19:14

[Профиль]  [ЛС] 

ZeroX

Стаж: 5 лет 7 месяцев

Сообщений: 146

Симпатии: 3

Robot-IX, блин опередил меня, я уже с рутрэкера 40 процентов скачал be

Создавать темы 28-Фев-2013 19:21

[Профиль]  [ЛС] 

Robot-IX ®

Стаж: 5 лет 7 месяцев

Сообщений: 223

Симпатии: 9

Robot-IX, блин опередил меня, я уже с рутрэкера 40 процентов скачал be
бывает... )))
потом повезёт, дружище!

Создавать темы 28-Фев-2013 19:25

[Профиль]  [ЛС] 

Robot-IX ®

Стаж: 5 лет 7 месяцев

Сообщений: 223

Симпатии: 9

смотрите, получайте удовольствие...!))


Последний раз редактировалось: Robot-IX (2014-01-24 22:52), всего редактировалось 1 раз

Создавать темы 28-Фев-2013 20:04

[Профиль]  [ЛС] 

9922

Стаж: 3 года 10 месяцев

Сообщений: 1

почему не качает????

Создавать темы 09-Янв-2014 22:31

[Профиль]  [ЛС] 

get-money

Стаж: 4 года 3 месяца

Сообщений: 2

Robot-IX, я не могу скачать можеш дать скорость

Создавать темы 19-Янв-2015 13:50

[Профиль]  [ЛС] 

oskar.uz

Стаж: 5 лет 7 месяцев

Сообщений: 42

Симпатии: 2

друзья, прошу, дайте газу, дайте скачать фильм!

Создавать темы 06-Май-2015 20:06

[Профиль]  [ЛС] 
Показать сообщения:    
Ответить на тему

Текущее время: 19-Ноя 13:32

Часовой пояс: UTC + 5



Вы не можете начинать темы
Вы не можете отвечать на сообщения
Вы не можете редактировать свои сообщения
Вы не можете удалять свои сообщения
Вы не можете голосовать в опросах
Вы не можете прикреплять файлы к сообщениям
Вы не можете скачивать файлы