Дом с призраками / House Hunting (Эрик Херт) [2013 г., триллер, DVDRip]

Ответить на тему
 

RRRRD96 ®

Стаж: 4 года 11 месяцев

Сообщений: 56

Дом с призраками / House Hunting
Год выпуска: 2013
Страна: США
Жанр: триллер
Продолжительность: 102 мин. / 01:42:35
Перевод: Любительский (одноголосый) (Хихидок)
Режиссер: Эрик Херт
В ролях: Арт ЛаФлёр, Хэйли Дюмон, Марк Сингер, Джеми Вэнс,
Описание: Две семьи в день открытых дверей и в надежде найти дома их мечты, посещают некий таинственный дом. Но после того, как они входят внутрь, их мечты становится адским кошмаром, когда они понимают, что каждая попытка уехать ведет их назад, к парадной двери. Попавших в это чистилище семьи, преследует бывший владелец пустынного дома, который заявляет, что только одна из этих двух семей сможет назвать этот дом своим.
Доп. информация: сценарий: Эрик Херт
продюсер: Эрика Эрлвод, Брайан Бибер, Пэт Кэссиди, ...
оператор: Тодд Фри, Эрик Херт
композитор: Джейсен Льюис
художник: Тим Бейэрл, Джессика Энн Ли, Эми Бэйкер Куик
монтаж: Джей Томас
премьера (мир): 1 февраля 2013
рейтинг MPAA: лицам до 17 лет обязательно присутствие взрослого
Качество: DVDRip
Формат: AVI
Видео кодек:FMP4
Аудио кодек: MP3
Видео: 720x576,Format : MPEG-4 Visual,Bit rate : 1 883 Kbps,Frame rate : 25.000 fps,Bit depth : 8 bits
Аудио: Format : MPEG Audio,Bit rate : 320 Kbps,Sampling rate : 44.1 KHz,Channel(s) : 2 channels

Скриншоты




Video
ID : 0
Format : MPEG-4 Visual
Format profile : [email protected]
Format settings, BVOP : No
Format settings, QPel : No
Format settings, GMC : No warppoints
Format settings, Matrix : Default (H.263)
Codec ID : FMP4
Duration : 1h 42mn
Bit rate : 1 883 Kbps
Width : 720 pixels
Height : 576 pixels
Display aspect ratio : 16:9
Frame rate : 25.000 fps
Standard : PAL
Color space : YUV
Chroma subsampling : 4:2:0
Bit depth : 8 bits
Scan type : Progressive
Compression mode : Lossy
Bits/(Pixel*Frame) : 0.182
Stream size : 1.35 GiB (85%)
Writing library : Lavc52.27.0
720x576,Format : MPEG-4 Visual,Bit rate : 1 883 Kbps,Frame rate : 25.000 fps,Bit depth : 8 bits
Format : MPEG Audio,Bit rate : 320 Kbps,Sampling rate : 44.1 KHz,Channel(s) : 2 channels
Audio #1
ID : 1
Format : MPEG Audio
Format version : Version 1
Format profile : Layer 3
Mode : Joint stereo
Codec ID : 55
Codec ID/Hint : MP3
Duration : 1h 42mn
Bit rate mode : Constant
Bit rate : 320 Kbps
Channel(s) : 2 channels
Sampling rate : 44.1 KHz
Compression mode : Lossy
Stream size : 235 MiB (14%)
Alignment : Aligned on interleaves
Interleave, duration : 26 ms (0.65 video frame)
Writing library : LAME3.98


Последний раз редактировалось: RRRRD96 (2013-03-08 08:09), всего редактировалось 5 раз(а)

Создавать темы 03-Мар-2013 13:07

[Профиль]  [ЛС] 

victor0778

Стаж: 6 лет 6 месяцев

Сообщений: 1670

Симпатии: 142

На бытовых плеерах показывать не будет из за тупого Видео кодека:FMP4

Создавать темы 03-Мар-2013 16:15

[Профиль]  [ЛС] 

Rosely

Стаж: 4 года 9 месяцев

Сообщений: 10

Симпатии: 1

Судя по скринам, качество не ахти..

Создавать темы 03-Мар-2013 19:30

[Профиль]  [ЛС] 

RRRRD96 ®

Стаж: 4 года 11 месяцев

Сообщений: 56

РАЗДАЮ С 08:00 ДО 22:00

Создавать темы 03-Мар-2013 22:10

[Профиль]  [ЛС] 

Davrick

Стаж: 4 года 5 месяцев

Сообщений: 37

Скачиваем! Раздаю с 7:00 до 23:00

Создавать темы 05-Мар-2013 16:19

[Профиль]  [ЛС] 

infineon

Стаж: 4 года 6 месяцев

Сообщений: 14

Симпатии: 1

раздаю с 10:00 до 11:00 кто успел -тот успел)

Создавать темы 05-Мар-2013 16:36

[Профиль]  [ЛС] 

Killer Bi

Стаж: 5 лет 7 месяцев

Сообщений: 77

качаю, спс!!!

_________________
Подпись отключена за нарушение правил форума

Создавать темы 05-Мар-2013 22:28

[Профиль]  [ЛС] 

Тимофей )

Стаж: 4 года 7 месяцев

Сообщений: 13

Братан плиз постой на раздаче

Создавать темы 06-Мар-2013 00:48

[Профиль]  [ЛС] 

dimaneg70

Стаж: 5 лет 7 месяцев

Сообщений: 9

На бытовых плеерах показывать не будет из за тупого Видео кодека:FMP4
Format Factory в помощь - я им бездну фильмов сконвертил для BBK

Создавать темы 06-Мар-2013 15:05

[Профиль]  [ЛС] 

worldwide

Стаж: 5 лет 4 месяца

Сообщений: 1

Скачал, услышал голос переводчика, удалил)

Создавать темы 06-Мар-2013 20:10

[Профиль]  [ЛС] 

RRRRD96 ®

Стаж: 4 года 11 месяцев

Сообщений: 56

worldwide, Но все четко понятно

Создавать темы 06-Мар-2013 21:10

[Профиль]  [ЛС] 

monstro99

Стаж: 4 года 5 месяцев

Сообщений: 15

Скачал, услышал голос переводчика, удалил)
спасибо что предупредил

Создавать темы 15-Мар-2013 22:58

[Профиль]  [ЛС] 
Показать сообщения:    
Ответить на тему

Текущее время: 17-Авг 11:01

Часовой пояс: UTC + 5



Вы не можете начинать темы
Вы не можете отвечать на сообщения
Вы не можете редактировать свои сообщения
Вы не можете удалять свои сообщения
Вы не можете голосовать в опросах
Вы не можете прикреплять файлы к сообщениям
Вы не можете скачивать файлы