Радислав Гандапас - Харизма лидера в бизнесе [2008 г.]

Ответить на тему
 

Abdulaziz1111 ®

Стаж: 5 лет 2 месяца

Сообщений: 36

Симпатии: 5

Радислав Гандапас - Харизма лидера в бизнесе- Год выпуска: 2008
Страна: Россия
Автор(ы): Радислав Гандапас
Издательство: Ораторика Медиа
Жанр(ы): Бизнес
Продолжительность: 2 часа 5 минут
Формат видео: DVDRip
Формат файла(ов): avi
Видео кодек: XviD
Аудио кодек: mp3
Видео: Xvid 640x480 25fps [Stream 00]
Аудио: MP3 44100Hz stereo 128kbps [Stream 01]
Количество каналов: 2
Язык: русский-Описание:
Видеокурс Радислава Гандапаса "ХАРИЗМА лидера в бизнесе" адресован руководителям высшего звена и собственникам бизнеса, а так же pr-консультантам и имиджмейкерам. Повышение влияние на поведение людей, объединение их для достижения совместных целей, управление деятельностью подчиненных и коллег с меньшими затратами ресурсов - заданный итог работы с этим фильмом. ...
--

Media.Info


Format : AVI
Format/Info : Audio Video Interleave
File size : 8.56 MiB
Duration : 1mn 6s
Overall bit rate : 1 073 Kbps
Video
ID : 0
Format : MPEG-4 Visual
Format profile : [email protected]
Format settings, BVOP : No
Format settings, QPel : No
Format settings, GMC : No warppoints
Format settings, Matrix : Default (H.263)
Codec ID : XVID
Codec ID/Hint : XviD
Duration : 1mn 6s
Bit rate : 932 Kbps
Width : 640 pixels
Height : 480 pixels
Display aspect ratio : 4:3
Frame rate : 25.000 fps
Color space : YUV
Chroma subsampling : 4:2:0
Bit depth : 8 bits
Scan type : Progressive
Compression mode : Lossy
Bits/(Pixel*Frame) : 0.121
Stream size : 7.43 MiB (87%)
Writing library : Magic0432
Audio
ID : 1
Format : MPEG Audio
Format version : Version 1
Format profile : Layer 3
Mode : Joint stereo
Mode extension : MS Stereo
Codec ID : 55
Codec ID/Hint : MP3
Duration : 1mn 6s
Bit rate mode : Constant
Bit rate : 128 Kbps
Channel(s) : 2 channels
Sampling rate : 44.1 KHz
Compression mode : Lossy
Stream size : 1.02 MiB (12%)
Alignment : Aligned on interleaves
Interleave, duration : 26 ms (0.65 video frame)
Writing library : LAME3.97

Части

1. Харизма. Вступление
2. Определение харизмы
3. Составные части харизмы
4. Люди, герои и боги
5. Какие нужны качества чтобы быть лидером
6. Картина мира лидера
7. Харизматическое лидерство
8. Харизматический миф
9. Ближний круг
10. Сложная система отношений
11. Формула любви
12. Женская харизма

Скриншоты







Последний раз редактировалось: Abdulaziz1111 (2013-03-03 22:03), всего редактировалось 10 раз(а)

Создавать темы 03-Мар-2013 21:26

[Профиль]  [ЛС] 

Guff

Стаж: 5 лет 10 месяцев

Сообщений: 115

Симпатии: 164

Автор(ы): Радислав Гандапас
Издательство: ОраторикаМедиа
Жанр(ы): Бизнес
Продолжительность: 2 часа 5 минут
Формат видео: DVDRip
Формат файла(ов): avi
Аудио кодек:
Количество каналов:

Создавать темы 03-Мар-2013 21:43

[Профиль]  [ЛС] 

Trunkvillizator

Стаж: 5 лет 7 месяцев

Сообщений: 18

Симпатии: 2

Блин, с мира скачал) Сначала скептически относился к данному тренеру, но прислушавшись, понял, что не лукавит: 0% воды, интересно рассказывает.

Создавать темы 14-Ноя-2013 15:30

[Профиль]  [ЛС] 
Показать сообщения:    
Ответить на тему

Текущее время: 12-Дек 13:35

Часовой пояс: UTC + 5



Вы не можете начинать темы
Вы не можете отвечать на сообщения
Вы не можете редактировать свои сообщения
Вы не можете удалять свои сообщения
Вы не можете голосовать в опросах
Вы не можете прикреплять файлы к сообщениям
Вы не можете скачивать файлы