Коматозники / Flatliners (Джоэл Шумахер / Joel Schumacher) [1990, США, триллер, фантастика, драма, BDRip-AVC] Dub (R5) + Original (Eng) + Subs (Rus, Eng)

Ответить на тему
 

Robot-IX ®

Стаж: 5 лет 4 месяца

Сообщений: 223

Симпатии: 9

Коматозники / Flatliners«Some lines shouldn't be crossed.»- Год выпуска: 1990
Страна: США
Студия: Columbia Pictures Corporation, Stonebridge Entertainment
Жанр: триллер, фантастика, драма
Продолжительность: 01:54:12
Перевод: профессиональный (полное дублирование) R5 - "Видеосервис"
Оригинальная аудиодорожка: английская
Субтитры: русские полные, английские полные
Навигация по главам: подписанные англоязычные главы-Режиссёр: Джоэл Шумахер / Joel Schumacher-В ролях:
Кифер Сазерлэнд (Nelson), Джулия Робертс (Rachel Mannus), Кевин Бэйкон (David Labraccio), Уильям Болдуин (Joe Hurley), Оливер Плэтт (Randy Steckle), Кимберли Скотт (Winnie Hicks), Джошуа Рудой (Billy Mahoney), Хоуп Дэвис (Anne Coldren), Джули Уорнер (Joe's Woman), Патриция Белчер (Edna, Ward Nurse), Бет Грант (Housewife)-Описание:
Достаточно сделать всего один шаг, чтобы перейти хрупкую грань между жизнью и смертью. Группа студентов-медиков выбрала для своих исследований запретную и опасную область. Будущие врачи решили проникнуть в тайну небытия, которое наступает после остановки сердца. Один за другим студенты погружаются в состояние клинической смерти, отправляясь в непредсказуемое путешествие по ту сторону жизни. Результаты исследований оказались настолько неожиданными, что побывавший ТАМ уже не может продолжать прежний образ жизни, даже если бы и хотел.-Доп. информация:
IMDb: 6.50/10
КиноПоиск: 7.388/10
MPAA: R - лицам до 17 лет обязательно присутствие родителей или взрослого

Знаете ли вы что...

  • Действие ленты большей частью происходит в операционных, лабораториях, у постели умирающих, в морге. Почти весь фильм снят в сумеречных полутонах или ночных пейзажах.
-Качество: BDRip
Формат: MKV
Видео кодек: H.264/AVC
Аудио кодек: AC3
Видео: H.264, 1200x510, 23.976 fps, ~2750 kbps, Бит/(Пиксели*Кадры): 0.184
Аудио №1: Русский, AC3, 3/2 (L,C,R,l,r) + LFE ch, 48 kHz, 448 kbps | Полное дублирование R5
Аудио №2: Английский, AC3, 3/2 (L,C,R,l,r) + LFE ch, 48 kHz, 448 kbps | Оригинал
Субтитры №1: Русские, SRT
Субтитры №2: Английские, SRT
Работа с главами: есть/16 | Англ. яз-

MediaInfo

General
Unique ID : 174535542800321983353868124958946703372 (0x834E52A496558474A73D2C9600EF380C)
Complete name : D:\Torent\Komatozniki.1990.BDRip-AVC.mkv
Format : Matroska
Format version : Version 4 / Version 2
File size : 2.91 GiB
Duration : 1h 54mn
Overall bit rate : 3 648 Kbps
Movie name : Коматозники / Flatliners (1990) BDRip-AVC
Encoded date : UTC 2013-03-04 07:33:50
Writing application : mkvmerge v6.0.0 ('Coming Up For Air') built on Jan 20 2013 09:52:00
Writing library : libebml v1.3.0 + libmatroska v1.4.0
Video
ID : 1
Format : AVC
Format/Info : Advanced Video Codec
Format profile : [email protected]
Format settings, CABAC : Yes
Format settings, ReFrames : 11 frames
Codec ID : V_MPEG4/ISO/AVC
Duration : 1h 54mn
Bit rate : 2 680 Kbps
Width : 1 200 pixels
Height : 510 pixels
Display aspect ratio : 2.35:1
Frame rate : 23.976 fps
Color space : YUV
Chroma subsampling : 4:2:0
Bit depth : 8 bits
Scan type : Progressive
Bits/(Pixel*Frame) : 0.183
Stream size : 2.14 GiB (73%)
Title : Коматозники / Flatliners (1990) BDRip-AVC
Writing library : x264 core 129 r2230kMod 1cffe9f
Encoding settings : cabac=1 / ref=11 / deblock=1:-2:-1 / analyse=0x3:0x133 / me=umh / subme=11 / psy=1 / fade_compensate=0.00 / psy_rd=1.03:0.02 / mixed_ref=1 / me_range=32 / chroma_me=1 / trellis=2 / 8x8dct=1 / cqm=0 / deadzone=21,11 / fast_pskip=1 / chroma_qp_offset=-3 / threads=3 / lookahead_threads=1 / sliced_threads=0 / nr=0 / decimate=1 / interlaced=0 / bluray_compat=0 / constrained_intra=0 / bframes=11 / b_pyramid=2 / b_adapt=2 / b_bias=0 / direct=1 / weightb=1 / open_gop=0 / weightp=2 / keyint=240 / keyint_min=23 / scenecut=40 / intra_refresh=0 / rc_lookahead=60 / rc=crf / mbtree=1 / crf=19.1000 / qcomp=0.65 / qpmin=0 / qpmax=69 / qpstep=4 / vbv_maxrate=50000 / vbv_bufsize=62500 / crf_max=0.0 / nal_hrd=none / ip_ratio=1.35 / aq=3:0.90
Language : English
Default : Yes
Forced : No
Audio #1
ID : 2
Format : AC-3
Format/Info : Audio Coding 3
Mode extension : CM (complete main)
Format settings, Endianness : Big
Codec ID : A_AC3
Duration : 1h 54mn
Bit rate mode : Constant
Bit rate : 448 Kbps
Channel(s) : 6 channels
Channel positions : Front: L C R, Side: L R, LFE
Sampling rate : 48.0 KHz
Bit depth : 16 bits
Compression mode : Lossy
Stream size : 366 MiB (12%)
Title : Дубляж, R5 - Видеосервис AC3 5.1 @ 448 kbps
Language : Russian
Default : Yes
Forced : No
Audio #2
ID : 3
Format : AC-3
Format/Info : Audio Coding 3
Mode extension : CM (complete main)
Format settings, Endianness : Big
Codec ID : A_AC3
Duration : 1h 54mn
Bit rate mode : Constant
Bit rate : 448 Kbps
Channel(s) : 6 channels
Channel positions : Front: L C R, Side: L R, LFE
Sampling rate : 48.0 KHz
Bit depth : 16 bits
Compression mode : Lossy
Stream size : 366 MiB (12%)
Title : Оригинал AC3 5.1 @ 448 kbps
Language : English
Default : No
Forced : No
Text #1
ID : 4
Format : UTF-8
Codec ID : S_TEXT/UTF8
Codec ID/Info : UTF-8 Plain Text
Language : Russian
Default : No
Forced : No
Text #2
ID : 5
Format : UTF-8
Codec ID : S_TEXT/UTF8
Codec ID/Info : UTF-8 Plain Text
Language : English
Default : No
Forced : No
Menu
00:00:00.000 : en:Start
00:06:38.022 : en:"I Saw Myself."
00:13:38.484 : en:Pathology Class
00:20:42.824 : en:Setting Up
00:28:33.002 : en:Nelson's Visions
00:34:11.883 : en:Something Out There
00:42:23.624 : en:Bidding War
00:48:03.422 : en:Dog in the Allay?
00:56:50.407 : en:Bad Dream
01:00:40.595 : en:Joe's Visions
01:10:51.497 : en:Defining Great
01:16:34.256 : en:An Allay & Tunnel
01:25:09.562 : en:"Halloween Morning."
01:30:37.640 : en:Trick or Treat
01:39:09.109 : en:"Party Town"
01:45:42.252 : en:Dave's Vision

x264 log

-[NoImage] x264 [info]: frame I:1053 Avg QP:15.66 size: 71211
-[NoImage] x264 [info]: frame P:32151 Avg QP:18.99 size: 26689
-[NoImage] x264 [info]: frame B:131100 Avg QP:20.85 size: 10853
-[NoImage] x264 [info]: consecutive B-frames: 1.4% 1.6% 4.9% 12.1% 10.8% 61.4% 3.5% 0.8% 1.2% 0.6% 0.5% 1.3%
-[NoImage] x264 [info]: mb I I16..4: 5.7% 84.1% 10.2%
-[NoImage] x264 [info]: mb P I16..4: 0.7% 8.8% 0.7% P16..4: 33.6% 39.8% 10.8% 1.3% 0.1% skip: 4.3%
-[NoImage] x264 [info]: mb B I16..4: 0.0% 1.5% 0.1% B16..8: 41.1% 21.1% 2.7% direct: 5.2% skip:28.3% L0:44.4% L1:47.5% BI: 8.1%
-[NoImage] x264 [info]: 8x8 transform intra:88.1% inter:66.9%
-[NoImage] x264 [info]: coded y,uvDC,uvAC intra: 93.3% 78.5% 48.1% inter: 27.3% 25.9% 2.5%
-[NoImage] x264 [info]: i16 v,h,dc,p: 28% 12% 4% 55%
-[NoImage] x264 [info]: i8 v,h,dc,ddl,ddr,vr,hd,vl,hu: 7% 5% 5% 11% 17% 15% 14% 12% 13%
-[NoImage] x264 [info]: i4 v,h,dc,ddl,ddr,vr,hd,vl,hu: 8% 7% 3% 10% 16% 16% 14% 12% 13%
-[NoImage] x264 [info]: i8c dc,h,v,p: 33% 28% 21% 19%
-[NoImage] x264 [info]: Weighted P-Frames: Y:6.8% UV:4.3%
-[NoImage] x264 [info]: ref P L0: 44.0% 8.9% 18.4% 7.1% 5.8% 4.1% 3.7% 2.1% 2.0% 1.7% 1.8% 0.3% 0.0%
-[NoImage] x264 [info]: ref B L0: 75.8% 10.9% 5.0% 2.5% 1.8% 1.4% 1.2% 0.7% 0.4% 0.2%
-[NoImage] x264 [info]: ref B L1: 93.8% 6.2%
-[NoImage] x264 [info]: kb/s:2750.21
-[NoImage] encoded 164304 frames, 1.30 fps, 2750.21 kb/s

Скриншоты



Последний раз редактировалось: Robot-IX (2013-03-04 14:14), всего редактировалось 1 раз

Создавать темы 04-Мар-2013 13:43

[Профиль]  [ЛС] 

Robot-IX ®

Стаж: 5 лет 4 месяца

Сообщений: 223

Симпатии: 9

Вот это кино!
все актёры в дальнейшем - знамениты, преуспевающие и миллионеры!
P.S после просмотра есть над чем задуматься!
что мы делаем при жизни или как над кем поступаем ?

Создавать темы 04-Мар-2013 13:45

[Профиль]  [ЛС] 

Kit

Стаж: 4 года 11 месяцев

Сообщений: 153

Симпатии: 9

MPAA: R - лицам до 17 лет обязательно присутствие родителей или взрослого
эхх... всё равно скачаю, уж сильно хочется посмотреть... ab
Спасибо!

Создавать темы 12-Мар-2013 21:56

[Профиль]  [ЛС] 

senya

Стаж: 6 лет 10 месяцев

Сообщений: 14

Скачавшие вернитесь на раздачу.

Создавать темы 09-Июл-2014 23:07

[Профиль]  [ЛС] 
Показать сообщения:    
Ответить на тему

Текущее время: 18-Авг 13:36

Часовой пояс: UTC + 5



Вы не можете начинать темы
Вы не можете отвечать на сообщения
Вы не можете редактировать свои сообщения
Вы не можете удалять свои сообщения
Вы не можете голосовать в опросах
Вы не можете прикреплять файлы к сообщениям
Вы не можете скачивать файлы