Корпорация Редда / Redd Inc. (Дэниэл Кридж) [2012 г., ужасы, триллер, HDRip]

Ответить на тему
 

victor0778 ®

Стаж: 6 лет 9 месяцев

Сообщений: 1670

Симпатии: 142

-Корпорация Редда / Redd Inc.

«Heads will roll.»
Год выпуска: 2012
Страна: Австралия
Жанр: ужасы, триллер, ...
Продолжительность: 01:33:27
Перевод: Любительский (одноголосый закадровый)
Режиссер: Дэниэл Кридж
Сценарий: Джонатан Грин, Энтони О’Коннор
Продюсер: Джонатан Грин, Сэнди Стивенс
Оператор: Ричард Брэдшоу
Композитор : Михаил Езерский
Художник: Клер Гранивиль, Аманда Сэллибэнкс
Монтаж: Сенвен Берри
В ролях: Николас Хоуп / Nicholas Hope (Thomas Reddmann), Келли Патернити / Kelly Paterniti (Annabelle Hale), Сэм Рейд / Sam Reid (William Tucker), Алан Дьюкс / Alan Dukes (Edward Crandell), Джеймс Маккэй / James Mackay (Rudy Khan), Хейли МакЭлхинни / Hayley McElhinney (Sheena O'Leary), Дэниэл Кридж / Daniel Krige (Guy Marr), Трэвис Джеймс Аннабел / Travis James Annabel (YouTuber)
 
Описание: Шесть сотрудников офиса взяты в плен и в буквальном смысле прикованы цепью к своим рабочим столам сумасшедшим беглым серийным убийцей, бывшим региональным менеджером по имени Томас Реддман (Редд). Он ставит перед кадровиками невыполнимую задачу — доказать его невиновность, или, в противном случае, им придется испытать на себе самые печальные последствия.
Премьера (мир): 6 сентября 2012, ...
Рейтинг MPAA: Лицам до 17 лет обязательно присутствие взрослого
Качество: HDRip
Формат: AVI
Видео кодек: XviD
Аудио кодек: AC3
Видео: 720x400 (16:9), 23.976 fps, XviD, 1 783 Kbps
Аудио: AC3, 448 Kbps, 48.0 KHz, 6 ch

Скриншоты

МедиаИнфо

General
Complete name                    : Redd.Inc.2012.L1.HDRip.1400Mb.avi
Format                           : AVI
Format/Info                      : Audio Video Interleave
File size                        : 1.46 GiB
Duration                         : 1h 33mn
Overall bit rate                 : 2 240 Kbps
Writing application              : VirtualDubMod 1.5.10.3 | www.virtualdub-fr.org || (build 2550/release)
Writing library                  : VirtualDubMod build 2550/release
Video
ID                               : 0
Format                           : MPEG-4 Visual
Format profile                   : Advanced [email protected]
Format settings, BVOP            : Yes
Format settings, QPel            : No
Format settings, GMC             : No warppoints
Format settings, Matrix          : Default (H.263)
Codec ID                         : XVID
Codec ID/Hint                    : XviD
Duration                         : 1h 33mn
Bit rate                         : 1 783 Kbps
Width                            : 720 pixels
Height                           : 400 pixels
Display aspect ratio             : 16:9
Frame rate                       : 23.976 fps
Color space                      : YUV
Chroma subsampling               : 4:2:0
Bit depth                        : 8 bits
Scan type                        : Progressive
Bits/(Pixel*Frame)               : 0.258
Stream size                      : 1.16 GiB (80%)
Writing library                  : XviD 1.2.1 (UTC 2008-12-04)
Audio
ID                               : 1
Format                           : AC-3
Format/Info                      : Audio Coding 3
Mode extension                   : CM (complete main)
Codec ID                         : 2000
Duration                         : 1h 33mn
Bit rate mode                    : Constant
Bit rate                         : 448 Kbps
Channel(s)                       : 6 channels
Channel positions                : Front: L C R, Side: L R, LFE
Sampling rate                    : 48.0 KHz
Bit depth                        : 16 bits
Stream size                      : 299 MiB (20%)
Alignment                        : Split accross interleaves
Interleave, duration             : 42 ms (1.00 video frame)
Interleave, preload duration     : 500 ms

Создавать темы 04-Мар-2013 14:30

[Профиль]  [ЛС] 

Robot-IX

Стаж: 5 лет 7 месяцев

Сообщений: 223

Симпатии: 9

victor0778 ууу... какой кровавый фильм! прям так и веет...! + ))

Создавать темы 04-Мар-2013 15:14

[Профиль]  [ЛС] 

Валентин

Стаж: 7 лет 5 месяцев

Сообщений: 20

Актёр в главной роли - один из самых кровавых актёров триллеров! Исходя из этого, фильм обещает быть super!!!

Создавать темы 04-Мар-2013 18:09

[Профиль]  [ЛС] 

Muhammadnazar

Стаж: 4 года 10 месяцев

Сообщений: 28

Симпатии: 1

Настоящий ужас!!! Молодец, Виктор, спасибо Вам!!!

Создавать темы 12-Мар-2013 21:52

[Профиль]  [ЛС] 

Homercompany

Стаж: 7 лет 8 месяцев

Сообщений: 234

Симпатии: 7

Фильм отличный, посмотрел до конца, фильм конечно для любителя, всётаки Редд был не виновен, но есть реальный ляп актрисы по году рождения с настоящим...

Скриншоты

Создавать темы 17-Мар-2013 18:43

[Профиль]  [ЛС] 
Показать сообщения:    
Ответить на тему

Текущее время: 20-Ноя 12:22

Часовой пояс: UTC + 5



Вы не можете начинать темы
Вы не можете отвечать на сообщения
Вы не можете редактировать свои сообщения
Вы не можете удалять свои сообщения
Вы не можете голосовать в опросах
Вы не можете прикреплять файлы к сообщениям
Вы не можете скачивать файлы