Вадим Шлахтер - Путь Бессмертия [2006 г.]

Ответить на тему
 

Abdulaziz1111 ®

Стаж: 4 года 11 месяцев

Сообщений: 36

Симпатии: 5

Вадим Шлахтер - Путь Бессмертия- -Производитель: Вадим Шлахтер
Страна: Россия
Год выпуска: 2006
Язык: русский
Видео кодек: DivX
Видео: DivX 3 720x576 25fps [Stream 00]
Аудио: MP3 44100Hz stereo 128kbps [Stream 01]-Содержание тренинга:
- Снятие барьера страха
- Новая теория относительности
- Развитие Духа Воли
- Безупречность Воина

Выдержка из записи:

...Сегодняшний наш урок будет посвящён освоению Бессмертия. Бессмертия как Пути Воина. Прежде чем мы начнём осваивать эту удивительную систему, эти удивительные упражнения, необходимо, чтобы Вы переосмыслили концепцию страха и смогли понять, что такое страх, любой из страхов, и как с ним справляться, но и не только справляться, а направить всю силу, всё могущество страха, который коренится в сознании и подсознании нашем, на укрепление своего Духа Воли, на укрепление Себя, на укрепление своего движения по великому пути Cилы...
...Дух Воли - то, что формирует нас. Нередко судьба возносит человека туда, где его психические параметры не соответствуют обстановке, через какое-то время этот человек всё-равно пойдёт на спад, потому что новый статус не соответствует Духу Воли. Внешний ранг перестал соответствовать внутреннему, или внутренний ранг не соответствует внешнему. Теория внутренних и внешних рангов является продолжением теории Духа Воли. Если Вы поймёте и сможете освоить то, о чём я сейчас говорю, Вы всегда будете находиться в идеальном состоянии. Я не исключаю, что работа с Духом Воли приведёт к торможению практически всех негативных изменений, физических и возрастных..." "

Media info

Format : AVI
Format/Info : Audio Video Interleave
File size : 141 MiB
Duration : 57mn 34s
Overall bit rate : 342 Kbps
Writing library : VirtualDub build 100/release
lmdo : hlmdш
Video
ID : 0
Format : MPEG-4 Visual
Codec ID : DIV3
Codec ID/Hint : DivX 3 Low
Duration : 57mn 34s
Bit rate : 207 Kbps
Width : 720 pixels
Height : 576 pixels
Display aspect ratio : 5:4
Frame rate : 25.000 fps
Standard : PAL
Color space : YUV
Chroma subsampling : 4:2:0
Bit depth : 8 bits
Compression mode : Lossy
Bits/(Pixel*Frame) : 0.020
Stream size : 85.1 MiB (60%)
Audio
ID : 1
Format : MPEG Audio
Format version : Version 1
Format profile : Layer 3
Mode : Joint stereo
Mode extension : MS Stereo
Codec ID : 55
Codec ID/Hint : MP3
Duration : 57mn 34s
Bit rate mode : Constant
Bit rate : 128 Kbps
Channel(s) : 2 channels
Sampling rate : 44.1 KHz
Compression mode : Lossy
Stream size : 52.7 MiB (37%)
Alignment : Split accross interleaves
Interleave, duration : 80 ms (2.00 video frames)

Скриншоты



Создавать темы 04-Мар-2013 19:45

[Профиль]  [ЛС] 
Показать сообщения:    
Ответить на тему

Текущее время: 22-Сен 09:21

Часовой пояс: UTC + 5



Вы не можете начинать темы
Вы не можете отвечать на сообщения
Вы не можете редактировать свои сообщения
Вы не можете удалять свои сообщения
Вы не можете голосовать в опросах
Вы не можете прикреплять файлы к сообщениям
Вы не можете скачивать файлы