Вадим Шлахтер - Скрытое психологическое воздействие при ведении переговоров [2006 г.]

Ответить на тему
 

Abdulaziz1111 ®

Стаж: 5 лет 2 месяца

Сообщений: 36

Симпатии: 5

Вадим Шлахтер - Скрытое психологическое воздействие при ведении переговоров- -Производитель: Вадим Шлахтер
Год выпуска: 2006
Страна: Россия
Язык: русский
Формат видео: AVI
Видео: DivX 5 512x384 25fps [Stream 00]
Аудио: MP3 48000Hz stereo 96kbps [Stream 01]
Продолжительность:: 00:49:52-Описание:
Тренинг записывался в студии по заказу одного из банков Санкт-Петербурга. Вадим Шлахтер рассказывает о технологиях, относящимся к закрытым авторским наработкам, кое-что использовалось различными службами разных стран и народов в разное время, кое-что не использовалось даже ими.-Содержание тренинга:
- Отработка тембра голоса.
- Подстройка под собеседника и ведение.
- Невербальные технологии психологического давления.
- Невербальные приемы психологической защиты.

-

Media.Info

Format : AVI
Format/Info : Audio Video Interleave
File size : 215 MiB
Duration : 49mn 52s
Overall bit rate : 602 Kbps
Writing application : MEncoder dev-CVS-031126-06:00-3.3.1
Writing library : MPlayer
Video
ID : 0
Format : MPEG-4 Visual
Format profile : [email protected]
Format settings, BVOP : No
Format settings, QPel : No
Format settings, GMC : No warppoints
Format settings, Matrix : Default (H.263)
Codec ID : DX50
Codec ID/Hint : DivX 5
Duration : 49mn 51s
Bit rate : 494 Kbps
Width : 512 pixels
Height : 384 pixels
Display aspect ratio : 4:3
Frame rate : 25.000 fps
Color space : YUV
Chroma subsampling : 4:2:0
Bit depth : 8 bits
Scan type : Progressive
Compression mode : Lossy
Bits/(Pixel*Frame) : 0.100
Stream size : 176 MiB (82%)
Writing library : FFmpeg0.4.8b4692
Audio
ID : 1
Format : MPEG Audio
Format version : Version 1
Format profile : Layer 3
Mode : Dual mono
Codec ID : 55
Codec ID/Hint : MP3
Duration : 49mn 52s
Bit rate mode : Constant
Bit rate : 96.0 Kbps
Channel(s) : 2 channels
Sampling rate : 48.0 KHz
Compression mode : Lossy
Stream size : 34.2 MiB (16%)
Alignment : Aligned on interleaves
Interleave, duration : 24 ms (0.60 video frame)
Interleave, preload duration : 504 ms
Writing library : LAME3.93
-

Скриншоты





Последний раз редактировалось: Abdulaziz1111 (2013-03-08 19:33), всего редактировалось 1 раз

Создавать темы 04-Мар-2013 20:08

[Профиль]  [ЛС] 

Killer Bi

Стаж: 5 лет 11 месяцев

Сообщений: 77

а че надо скачать полезная вещь если хочешь стать психологом

_________________
Подпись отключена за нарушение правил форума

Создавать темы 04-Мар-2013 21:47

[Профиль]  [ЛС] 

rIL

Стаж: 5 лет 11 месяцев

Сообщений: 4

Не обязательно психологом. Почитал отзывы в интернете, пишут что Шлахтер - гений в своём деле. Думаю стоит и обычным людям посмотреть.

Создавать темы 06-Мар-2013 00:14

[Профиль]  [ЛС] 

bach

Стаж: 6 лет 4 месяца

Сообщений: 5

Народ приветствую. Скиньте на раздачу. За ранее спасибо

Создавать темы 20-Авг-2013 15:29

[Профиль]  [ЛС] 

Trunkvillizator

Стаж: 5 лет 7 месяцев

Сообщений: 18

Симпатии: 2

Господа, относитесь трудам Шлахтера без фанатизма. Безусловно, у него есть пара другая хороших психотехник, но с его философией "Клюнь ближнего, гадь на нижнего", которую он проповедует, хороших отношений с людьми не построите и доминантным самцом тоже не станете. :)

Создавать темы 22-Окт-2013 21:55

[Профиль]  [ЛС] 

Voris1296

Стаж: 4 года 9 месяцев

Сообщений: 16

Симпатии: 1

Дайте скорости...

Создавать темы 26-Янв-2014 21:18

[Профиль]  [ЛС] 
Показать сообщения:    
Ответить на тему

Текущее время: 15-Дек 22:42

Часовой пояс: UTC + 5



Вы не можете начинать темы
Вы не можете отвечать на сообщения
Вы не можете редактировать свои сообщения
Вы не можете удалять свои сообщения
Вы не можете голосовать в опросах
Вы не можете прикреплять файлы к сообщениям
Вы не можете скачивать файлы