Роберт Кийосаки - Стать богатым за 60 минут / 60 Minutes to Getting Rich [2000 г.]

Ответить на тему
 

Abdulaziz1111 ®

Стаж: 5 лет 1 месяц

Сообщений: 36

Симпатии: 5

Стать богатым за 60 минут / 60 Minutes to Getting Rich- -Год выпуска: 2000
Страна: США и Канада
Жанр: Видеосеминар
Продолжительность: 1:00:24
Язык: русский
Формат видео: MP4
Видео кодек: MPEG4
Видео: MPEG4 Video (H264) 320x240 25fps 234kbps [Video]
Аудио: AAC 44100Hz stereo 45kbps [Audio]-Описание:
В этом видеосеминаре Роберт Кийосаки излагает свои основные идеи по поводу управления личными финансами, заставляет иначе взглянуть на мир денег и заработок.
Здесь кратко изложены основные моменты, которые описаны в его бестселлерах: "Богатый папа, бедный папа", "Квадрант денежного потока" и многих других.
Основной посыл Кийосаки:"Перестаньте работать за деньги, пусть деньги работают на Вас!"
"Начните строить свой Актив!"
Главы видеосеминара:
1. Деньги — это идея!
2. Ваш дом — не актив!
3. Больше зарабатывать... меньше работать
4. Занимайтесь собственным бизнесом
5. Отойти от дел молодым и богатым
6. Итак, что же вас останавливает?

Посмотрите, не пожалеете!!!

Media.Info

Format : MPEG-4
Format profile : Base Media
Codec ID : isom
File size : 20.4 MiB
Duration : 9mn 58s
Overall bit rate mode : Variable
Overall bit rate : 286 Kbps
Writing application : Lavf53.3.1
Video
ID : 1
Format : AVC
Format/Info : Advanced Video Codec
Format profile : [email protected]
Format settings, CABAC : Yes
Format settings, ReFrames : 4 frames
Codec ID : avc1
Codec ID/Info : Advanced Video Coding
Duration : 9mn 58s
Bit rate : 233 Kbps
Width : 320 pixels
Height : 240 pixels
Display aspect ratio : 4:3
Frame rate mode : Constant
Frame rate : 25.000 fps
Color space : YUV
Chroma subsampling : 4:2:0
Bit depth : 8 bits
Scan type : Progressive
Bits/(Pixel*Frame) : 0.121
Stream size : 16.7 MiB (82%)
Writing library : x264 core 115 r1995 c1e60b9
Encoding settings : cabac=1 / ref=3 / deblock=1:0:0 / analyse=0x3:0x113 / me=hex / subme=7 / psy=1 / psy_rd=1.00:0.00 / mixed_ref=1 / me_range=16 / chroma_me=1 / trellis=1 / 8x8dct=1 / cqm=0 / deadzone=21,11 / fast_pskip=1 / chroma_qp_offset=-2 / threads=4 / sliced_threads=0 / nr=0 / decimate=1 / interlaced=0 / bluray_compat=0 / constrained_intra=0 / bframes=3 / b_pyramid=2 / b_adapt=1 / b_bias=0 / direct=1 / weightb=0 / open_gop=1 / weightp=2 / keyint=25 / keyint_min=13 / scenecut=40 / intra_refresh=0 / rc_lookahead=25 / rc=abr / mbtree=1 / bitrate=233 / ratetol=1.0 / qcomp=0.60 / qpmin=10 / qpmax=69 / qpstep=4 / ip_ratio=1.41 / aq=1:1.00
Audio
ID : 2
Format : AAC
Format/Info : Advanced Audio Codec
Format profile : LC
Codec ID : 40
Duration : 9mn 58s
Bit rate mode : Variable
Bit rate : 45.9 Kbps
Maximum bit rate : 64.0 Kbps
Channel(s) : 2 channels
Channel positions : Front: L R
Sampling rate : 44.1 KHz
Compression mode : Lossy
Delay relative to video : 80ms
Stream size : 3.28 MiB (16%)

Скриншоты





Создавать темы 04-Мар-2013 22:17

[Профиль]  [ЛС] 
Показать сообщения:    
Ответить на тему

Текущее время: 20-Ноя 11:09

Часовой пояс: UTC + 5



Вы не можете начинать темы
Вы не можете отвечать на сообщения
Вы не можете редактировать свои сообщения
Вы не можете удалять свои сообщения
Вы не можете голосовать в опросах
Вы не можете прикреплять файлы к сообщениям
Вы не можете скачивать файлы