Сайлент Хилл 2 / Silent Hill: Revelation (Майкл Дж. Бассетт) [2012 г., Ужасы, Триллер, Детектив, BDRip]

Ответить на тему
 

azik-1993 ®

Стаж: 4 года 6 месяцев

Сообщений: 155

Симпатии: 23

Сайлент Хилл 2 / Silent Hill: Revelation
Год выпуска: 2012
Страна: Франция, США, Канада / Davis-Films, Silent Hill 2 DCP
Жанр: Ужасы, Триллер, Детектив
Продолжительность: 01:34:47
Перевод: Профессиональный (полное дублирование)
Режиссер: Майкл Дж. Бассетт

В ролях: Шон Бин, Кит Харингтон, Кэрри-Энн Мосс, Малкольм МакДауэлл, Рада Митчелл, Дебора Кара Ангер, Мартин Донован
Описание: Хизер терзается ночными кошмарами с одиннадцатилетнего возраста и вынуждена со своим отцом постоянно менять место жительства, скрываясь от таинственных сил. Накануне своего восемнадцатого дня рождения Хизер, вернувшись домой, обнаруживает, что её отец исчез. Единственное, что она нашла дома — нарисованный на стене оккультный символ с надписью «отправляйся в Сайлент-Хилл».

Качество: BDRip
Формат: MKV
Видео: Video: MPEG4 Video (H264) 1920x800 23.976fps [English (Video 1) [Default]]
Аудио: Dolby AC3 48000Hz 6ch [Russian (Audio 1) [Default]]
Subtitle: UTF-8 [English (Subtitle 1)]

Скриншоты

General
Unique ID : 229648752013240716663303668022731771051 (0xACC4BDA6562ECDB0984745C1140E8CAB)
Complete name : E:\Кино\Ужасы\Silent Hill Revelation(1080p) .mkv
Format : Matroska
Format version : Version 4 / Version 2
File size : 5.85 GiB
Duration : 1h 34mn
Overall bit rate : 8 839 Kbps
Encoded date : UTC 2013-02-01 12:23:08
Writing application : mkvmerge v6.0.0 ('Coming Up For Air') built on Jan 20 2013 09:52:00
Writing library : libebml v1.3.0 + libmatroska v1.4.0
Video
ID : 1
Format : AVC
Format/Info : Advanced Video Codec
Format profile : [email protected]
Format settings, CABAC : Yes
Format settings, ReFrames : 5 frames
Codec ID : V_MPEG4/ISO/AVC
Duration : 1h 34mn
Bit rate : 8 391 Kbps
Width : 1 920 pixels
Height : 800 pixels
Display aspect ratio : 2.40:1
Frame rate mode : Constant
Frame rate : 23.976 fps
Color space : YUV
Chroma subsampling : 4:2:0
Bit depth : 8 bits
Scan type : Progressive
Bits/(Pixel*Frame) : 0.228
Stream size : 5.44 GiB (93%)
Writing library : x264 core 129 r2245 bc13772
Encoding settings : cabac=1 / ref=5 / deblock=1:0:0 / analyse=0x3:0x133 / me=umh / subme=7 / psy=1 / psy_rd=1.00:0.00 / mixed_ref=1 / me_range=16 / chroma_me=1 / trellis=1 / 8x8dct=1 / cqm=0 / deadzone=21,11 / fast_pskip=0 / chroma_qp_offset=-2 / threads=12 / lookahead_threads=2 / sliced_threads=0 / nr=0 / decimate=1 / interlaced=0 / bluray_compat=0 / constrained_intra=0 / bframes=3 / b_pyramid=2 / b_adapt=1 / b_bias=0 / direct=1 / weightb=1 / open_gop=0 / weightp=2 / keyint=250 / keyint_min=23 / scenecut=40 / intra_refresh=0 / rc_lookahead=40 / rc=2pass / mbtree=1 / bitrate=8391 / ratetol=1.0 / qcomp=0.60 / qpmin=0 / qpmax=69 / qpstep=4 / cplxblur=20.0 / qblur=0.5 / ip_ratio=1.40 / aq=1:1.00
Language : English
Default : Yes
Forced : No
Audio
ID : 2
Format : AC-3
Format/Info : Audio Coding 3
Mode extension : CM (complete main)
Format settings, Endianness : Big
Codec ID : A_AC3
Duration : 1h 34mn
Bit rate mode : Constant
Bit rate : 448 Kbps
Channel(s) : 6 channels
Channel positions : Front: L C R, Side: L R, LFE
Sampling rate : 48.0 KHz
Bit depth : 16 bits
Compression mode : Lossy
Stream size : 304 MiB (5%)
Language : Russian
Default : Yes
Forced : No
Text
ID : 3
Format : UTF-8
Codec ID : S_TEXT/UTF8
Codec ID/Info : UTF-8 Plain Text
Language : English
Default : No
Forced : No


Последний раз редактировалось: azik-1993 (2013-03-29 17:49), всего редактировалось 3 раз(а)

Создавать темы 05-Мар-2013 11:28

[Профиль]  [ЛС] 

Riley Freeman

Стаж: 5 лет 7 месяцев

Сообщений: 12

Симпатии: 3

Не раздал и убежал....

Создавать темы 23-Мар-2013 21:41

[Профиль]  [ЛС] 

Olim98

Стаж: 4 года 3 месяца

Сообщений: 63

кто нибудь дайте хоть немного скорости

Создавать темы 15-Май-2013 18:00

[Профиль]  [ЛС] 
Показать сообщения:    
Ответить на тему

Текущее время: 20-Авг 18:32

Часовой пояс: UTC + 5



Вы не можете начинать темы
Вы не можете отвечать на сообщения
Вы не можете редактировать свои сообщения
Вы не можете удалять свои сообщения
Вы не можете голосовать в опросах
Вы не можете прикреплять файлы к сообщениям
Вы не можете скачивать файлы