(Классическая гитара) Pepe Romero - Guitar Solos - 1992, ape (image+.cue), lossless

Ответить на тему
 

Astrolog ®

Стаж: 5 лет 2 месяца

Сообщений: 213

Симпатии: 27

Pepe Romero - Guitar Solos
Жанр: Классическая гитара
Год выпуска диска: 1992
Производитель диска: Германия
Аудио кодек: ape
Тип рипа: image+.cue
Битрейт аудио: lossless
Продолжительность: 01:00:00
Трэклист:
01. Anonimous. Romance [0:01:50.00]
02. Albeniz. Sevilla [0:04:19.00]
03. Albeniz. Granada [0:04:35.00]
04. Albeniz. Rumeros de la caleta [0:03:31.00]
05. Albeniz. Mallorca [0:06:37.00]
06. Granados. Andaluza [0:03:59.00]
07. Albeniz. Tango [0:02:16.00]
08. Albeniz. Asturias [0:06:15.00]
09. Romero. Malaguena [0:05:17.00]
10. Tarrega. Pavana [0:01:49.00]
11. Romero. Romantico [0:02:00.00]
12. Tarrega. Capricho Arabe [0:05:11.00]
13. Sor. Variations [0:07:36.00]
14. Granados. Intermedio [0:04:45.00]

Обложка, оборот

Качество оцифровки, Guitar Solos.log

Exact Audio Copy V0.99 prebeta 3 from 28. July 2007
Отчёт EAC об извлечении, выполненном 21. декабря 2008, 13:51
Pepe Romero / Guitar Solos
Дисковод: TEAC CD-W524E Adapter: 4 ID: 0
Режим чтения : Достоверность
Использование точного потока : Да
Отключение кэша аудио : Да
Использование указателей C2 : Нет
Комбинированное смещение чтения/записи : 655
Способность читать области Lead-in и Lead-out : Нет
Заполнение пропущенных сэмплов тишиной : Да
Удаление блоков с тишиной в начале и конце : Нет
При вычислениях CRC использовались нулевые сэмплы : Нет
Интерфейс : Встроенный Win32-интерфейс для Win NT/2000
Выходной формат : Внутренние WAV-операции
Формат сэмплов : 44.100 Гц; 16 бит; стерео
TOC извлечённого CD
Трек | Старт | Длительность | Начальный сектор | Конечный сектор
---------------------------------------------------------------------
1 | 0:00.33 | 1:50.00 | 33 | 8282
2 | 1:50.33 | 4:19.00 | 8283 | 27707
3 | 6:09.33 | 4:35.00 | 27708 | 48332
4 | 10:44.33 | 3:31.00 | 48333 | 64157
5 | 14:15.33 | 6:37.00 | 64158 | 93932
6 | 20:52.33 | 3:59.00 | 93933 | 111857
7 | 24:51.33 | 2:16.00 | 111858 | 122057
8 | 27:07.33 | 6:15.00 | 122058 | 150182
9 | 33:22.33 | 5:17.00 | 150183 | 173957
10 | 38:39.33 | 1:49.00 | 173958 | 182132
11 | 40:28.33 | 2:00.00 | 182133 | 191132
12 | 42:28.33 | 5:11.00 | 191133 | 214457
13 | 47:39.33 | 7:36.00 | 214458 | 248657
14 | 55:15.33 | 4:45.00 | 248658 | 270032
Характеристики диапазона извлечения и сообщения об ошибках
Выбранный диапазон
Имя файла F:\Musik\CD_EAC_Cue\Pepe Romero - Guitar Solos.wav
Пиковый уровень 90.0 %
Качество диапазона 100.0 %
CRC копии 92C3BA6B
Копирование... OK
Ошибок не произошло
Конец отчёта
Доп. информация: Пепе Ромеро, виртуозное исполнение, отличный сборник, качество DDD. 6, 7 и 14 треки звучат в исполнении Селина Ромеро, брата Пепе Ромеро. Произведения Исаака Альбениса, Энирико Гранадоса, Франциско Тарреги и Фернандо Сора в исполнении Ромеро - это подлинная настоящая живая классика жанра. Современная запись отлично передает глубину и богатство звука классической гитары.
Оригинальная раздача на сайте rutracker.org

Создавать темы 06-Мар-2013 11:15

[Профиль]  [ЛС] 
Показать сообщения:    
Ответить на тему

Текущее время: 22-Авг 00:46

Часовой пояс: UTC + 5



Вы не можете начинать темы
Вы не можете отвечать на сообщения
Вы не можете редактировать свои сообщения
Вы не можете удалять свои сообщения
Вы не можете голосовать в опросах
Вы не можете прикреплять файлы к сообщениям
Вы не можете скачивать файлы