Затащи меня в Ад / Drag Me to Hell (Сэм Рэйми) [2009 г., Ужасы, DVDRip]

Ответить на тему
 

Abdulaziz1111 ®

Стаж: 5 лет

Сообщений: 36

Симпатии: 5

Затащи меня в Ад / Drag Me to Hell- -Год выпуска: 2009
Страна: США
Жанр: Ужасы
Продолжительность: 01:35:07
Перевод: Профессиональный (многоголосый, закадровый)
Режиссер: Сэм Рэйми-В ролях:
Адриана Барраза, Бояна Новакович, Джастин Лонг, Дилип Рао, Дэвид Пэймер, Лорна Рэвер, Молли Чик, Регги Ли, Челси Росс, Элисон Ломан-Описание:
Кристина Браун живет в Лос-Анжелесе, работает в банке, оформляя клиентам ссуды, у нее обаятельный и любящий бойфренд, профессор Клэй Далтон. Все складывается хорошо и, казалось, что жизнь удалась…, но только до тех пор, пока в банке не появляется некая миссис Гануш с просьбой об отсрочке ипотечного кредита.
Кристина и рада бы пойти навстречу старой женщине, но перед ней маячит возможность занять более высокую должность в банке, и она отказывает старухе. В ответ, та накладывает на нее проклятие, и жизнь девушки превращается в непрерывный кошмар. Теперь помочь Кристине может только провидица Шаун Сэн Дена
Доп. информация: Бюджет: $30 000 000-Качество: DVDRip
Формат: AVI
Видео кодек: XviD
Аудио кодек: AC3
Видео: Xvid 720x304 23.976fps [Stream 00]
Аудио: Dolby AC3 48000Hz 6ch 448kbps [Stream 01]

Media Info

Format : AVI
Format/Info : Audio Video Interleave
File size : 1.37 GiB
Duration : 1h 35mn
Overall bit rate : 2 058 Kbps
Writing application : VirtualDubMod 1.5.10.2 (build 2540/release)
Writing library : VirtualDubMod build 2540/release
Video
ID : 0
Format : MPEG-4 Visual
Format profile : Advanced [email protected]
Format settings, BVOP : 1
Format settings, QPel : No
Format settings, GMC : No warppoints
Format settings, Matrix : Default (MPEG)
Codec ID : XVID
Codec ID/Hint : XviD
Duration : 1h 35mn
Bit rate : 1 600 Kbps
Width : 720 pixels
Height : 304 pixels
Display aspect ratio : 2.35:1
Frame rate : 23.976 fps
Color space : YUV
Chroma subsampling : 4:2:0
Bit depth : 8 bits
Scan type : Progressive
Compression mode : Lossy
Bits/(Pixel*Frame) : 0.305
Stream size : 1.06 GiB (78%)
Writing library : XviD 1.2.1 (UTC 2008-12-04)
Audio
ID : 1
Format : AC-3
Format/Info : Audio Coding 3
Mode extension : CM (complete main)
Format settings, Endianness : Big
Codec ID : 2000
Duration : 1h 35mn
Bit rate mode : Constant
Bit rate : 448 Kbps
Channel(s) : 6 channels
Channel positions : Front: L C R, Side: L R, LFE
Sampling rate : 48.0 KHz
Bit depth : 16 bits
Compression mode : Lossy
Stream size : 305 MiB (22%)
Alignment : Split accross interleaves
Interleave, duration : 42 ms (1.00 video frame)
Interleave, preload duration : 500 ms

Скриншоты











Последний раз редактировалось: Abdulaziz1111 (2013-03-06 18:31), всего редактировалось 1 раз

Создавать темы 06-Мар-2013 18:28

[Профиль]  [ЛС] 

vladik

Стаж: 5 лет 8 месяцев

Сообщений: 128

Симпатии: 1

Abdulaziz1111, спасибо вам, я долго искал, вот только теперь бы скорости....))))

Создавать темы 06-Мар-2013 20:29

[Профиль]  [ЛС] 

Abdulaziz1111 ®

Стаж: 5 лет

Сообщений: 36

Симпатии: 5

vladik, не за что! Стою на раздаче!

Создавать темы 06-Мар-2013 20:34

[Профиль]  [ЛС] 

olim5631

Стаж: 4 года 8 месяцев

Сообщений: 120

Симпатии: 1

нормально раздавайте народ пожалуйста bu tu

Создавать темы 09-Апр-2013 22:47

[Профиль]  [ЛС] 

Felinn1

Стаж: 6 лет 3 месяца

Сообщений: 37

Симпатии: 1

Кто нибудь помогите с раздачей. Уже 2 недели не могу скачать.

Создавать темы 17-Сен-2013 11:31

[Профиль]  [ЛС] 

Felinn1

Стаж: 6 лет 3 месяца

Сообщений: 37

Симпатии: 1

Ну хоть кто нибудь встаньте на раздачу 300мб осталось докачать

Создавать темы 18-Сен-2013 11:29

[Профиль]  [ЛС] 

MusQaymoq

Стаж: 6 лет 4 месяца

Сообщений: 4

плз дайте ГАЗА )

Создавать темы 13-Авг-2014 15:38

[Профиль]  [ЛС] 

Элмурод

Стаж: 5 лет 8 месяцев

Сообщений: 4

помогите не могу скачать ! кто нибудь встанте на раздачу уже 20процент осталось

Создавать темы 27-Окт-2014 15:47

[Профиль]  [ЛС] 
Показать сообщения:    
Ответить на тему

Текущее время: 23-Окт 22:06

Часовой пояс: UTC + 5



Вы не можете начинать темы
Вы не можете отвечать на сообщения
Вы не можете редактировать свои сообщения
Вы не можете удалять свои сообщения
Вы не можете голосовать в опросах
Вы не можете прикреплять файлы к сообщениям
Вы не можете скачивать файлы