Сезон охоты Трилогия - Open season Trilogy (Роджер Аллерс, Мэттью О’Каллаган, Коуди Камерон) [2006-2008-2010 г.г, Мультфильм / Комедия / Приключения / Семейный, DVDRip]

Ответить на тему
 

Kubaev_Muhiddin ®

Стаж: 6 лет 8 месяцев

Сообщений: 104

Симпатии: 34

Сезон охоты - Open season
Год выпуска: 2006
Страна: США
Жанр: Мультфильм / Комедия / Приключения / Семейный
Продолжительность: 01:22:39
Перевод: Профессиональный (полное дублирование)
Режиссер: Роджер Аллерс, Джилл Калтон, Энтони Стаччи
Сценарий: Стив Бенчич, Рон Дж. Фридман, Нат Молдин
Продюсер: Мишель Мурдокка, Джон Б. Карлс, Базз Хэйс
Премьера в мире: 29 сентября 2006
Бюджет: 85 000 000 $
Сборы в США 84 303 558 $
Сборы в мире + 104 784 721 $ = 189 088 279 $
В ролях: Мартин Лоуренс, Эштон Кутчер, Гэри Синиз, Дебра Мессинг, Билли Коннолли, Джорджия Энджел, Джон Фавро, Джейн Краковски, Гордон Тутусис, Патрик Варбертон
Роли дублировали: Фёдор Бондарчук, Олег Куликович, Михаил Боярский, Ксения Бржезовская, Максим Сергеев
Описание: Выросший среди людей гризли оказывается в лесу в самый разгар охотничьего сезона. И пока ухаживавший за медведем егерь ищет своего воспитанника, гризли водит дружбу с лесным оленем.
Качество: DVDRip
Формат: AVI
Видео кодек: DX50
Аудио кодек: AC-3
Видео: DivX 5 704x384 25 fps 1 916 kbps
Аудио: Dolby AC3 48000 Hz 6 ch. 448 kbps

Медиа инфо

Видео
Идентификатор : 0
Формат : MPEG-4 Visual
Параметр BVOP формата : 1
Параметр QPel формата : Нет
Параметр GMC формата : Без точки перехода
Параметр матрицы формата : Default (H.263)
Режим смешивания : Сжатый битовый поток
Идентификатор кодека : DX50
Идентификатор кодека/Подсказка : DivX 5
Продолжительность : 1 ч. 22 м.
Битрейт : 1916 Кбит/сек
Ширина : 704 пикселя
Высота : 384 пикселя
Соотношение сторон : 1,85:1
Частота кадров : 25,000 кадров/сек
Цветовое пространство : YUV
Субдискретизация насыщенности : 4:2:0
Битовая глубина : 8 бит
Тип развёртки : Прогрессивная
Метод сжатия : С потерями
Бит/(Пиксели*Кадры) : 0.284
Размер потока : 1,11 Гбайт (81%)
Библиотека кодирования : DivX 5.1.1 (Maupiti) (UTC 2003-11-19)
Аудио
Идентификатор : 1
Формат : AC-3
Формат/Информация : Audio Coding 3
Расширение режима : CM (complete main)
Параметр Endianness формата : Big
Идентификатор кодека : 2000
Продолжительность : 1 ч. 22 м.
Вид битрейта : Постоянный
Битрейт : 448 Кбит/сек
Каналы : 6 каналов
Расположение каналов : Front: L C R, Side: L R, LFE
Частота : 48,0 КГц
Битовая глубина : 16 бит
Метод сжатия : С потерями
Размер потока : 265 Мбайт (19%)
Выравнивание : Разделение по промежуткам
Продолжительность промежутка : 96 мс. (2,40 видеокадра)
Время предзагрузки промежутка : 96 мс.
Язык : Russian

Скриншоты



Сезон охоты 2 - Open season 2
Год выпуска: 2008
Страна: США
Жанр: Мультфильм / Комедия / Приключения / Семейный
Продолжительность: 01:13:15
Перевод: Профессиональный (полное дублирование)
Режиссер: Мэттью О’Каллаган, Тодд Вилдерман
Сценарий: Дэвид И. Штерн
Продюсер: Кирк Бодифелт, Мэттью О’Каллаган, Джилл Калтон
Премьера в мире: 24 сентября 2008
Бюджет: 8 588 133 $
Сборы в России 6 292 374 $
DVD в США 21 359 653$
В ролях: Джоэл МакХэйл, Майк Эппс, Джейн Краковски, Билли Коннолли, Криспин Гловер, Стив Ширрипа, Джорджия Энджел, Дидрих Бадер, Коуди Камерон, Фред Столлер
Роли дублировали: Олег Куликович, Иван Паршин, Фёдор Бондарчук, Елена Шульман, Максим Сергеев
Описание: Буга и Элиота ждут новые безумные приключения! Элиот без памяти влюбился в Жизель, но ему приходится сойти с дороги, ведущей к алтарю, когда Мистера Уини похищают избалованные домашние животные, которые намерены вернуть его хозяевам. Буг, Элиот, Макскизи, Бадди и другие обитатели леса разворачивают полномасштабную спасательную операцию ради своего похожего на сосиску друга, и вскоре оказываются в лагере врага: в мире домашних питомцев. Домашние неженки под предводительством карликового пуделя Фифи не собираются отдавать Мистера Уини без боя.
Качество: DVDRip
Формат: AVI
Видео кодек: XVID
Аудио кодек: AC-3
Видео: Xvid 720x384 25 fps 2 211 kbps
Аудио: Dolby AC3 48000 Hz 5 ch. 448 kbps

Медиа инфо

Видео
Идентификатор : 0
Формат : MPEG-4 Visual
Профиль формата : Advanced [email protected]
Параметр BVOP формата : 1
Параметр QPel формата : Нет
Параметр GMC формата : Без точки перехода
Параметр матрицы формата : Default (MPEG)
Режим смешивания : Сжатый битовый поток
Идентификатор кодека : XVID
Идентификатор кодека/Подсказка : XviD
Продолжительность : 1 ч. 13 м.
Битрейт : 2211 Кбит/сек
Ширина : 720 пикселей
Высота : 384 пикселя
Соотношение сторон : 1,85:1
Частота кадров : 25,000 кадров/сек
Цветовое пространство : YUV
Субдискретизация насыщенности : 4:2:0
Битовая глубина : 8 бит
Тип развёртки : Прогрессивная
Метод сжатия : С потерями
Бит/(Пиксели*Кадры) : 0.320
Размер потока : 1,13 Гбайт (83%)
Библиотека кодирования : XviD 1.2.0.dev47 (UTC 2006-11-01)
Аудио
Идентификатор : 1
Формат : AC-3
Формат/Информация : Audio Coding 3
Расширение режима : CM (complete main)
Параметр Endianness формата : Big
Идентификатор кодека : 2000
Продолжительность : 1 ч. 13 м.
Вид битрейта : Постоянный
Битрейт : 448 Кбит/сек
Каналы : 6 каналов
Расположение каналов : Front: L C R, Side: L R, LFE
Частота : 48,0 КГц
Битовая глубина : 16 бит
Метод сжатия : С потерями
Задержка видео : 800 мс.
Размер потока : 235 Мбайт (17%)
Выравнивание : Разделение по промежуткам
Продолжительность промежутка : 40 мс. (1,00 видеокадр)
Время предзагрузки промежутка : 500 мс.

Скриншоты



Сезон охоты 3 - Open season 3
Год выпуска: 2010
Страна: США
Жанр: Мультфильм / Комедия / Приключения / Семейный
Продолжительность: 01:14:30
Перевод: Профессиональный (полное дублирование)
Режиссер: Коуди Камерон
Сценарий: Дэвид И. Штерн
Продюсер: Кирк Бодифелт, Дэвид И. Штерн
Премьера в мире: 21 октября 2010
Сборы в России 5 256 968 $
В ролях: Мэттью Дж. Мунн, Ника Футтерман, Мэттью В. Тейлор, Андре Соглиуззо, Дэнни Манн, Карли Скотт Коллинз, Кьяра Браво, Харрисон Фан, Мелисса Штурм, Джефф Беннетт
Роли дублировали: Фёдор Бондарчук, Станислав Концевич
Описание: Продолжение сумасшедших приключений медведя-гризли Буга и его верного друга, оленя Элиота. На этот раз Буг пускается на поиски личного счастья и попадает… в бродячий цирк, где знакомится с очаровательной русской медведицей.
Качество: DVDRip
Формат: AVI
Видео кодек: XVID
Аудио кодек: AC-3
Видео: Xvid 720x384 25 fps 2 400 kbps
Аудио: Dolby AC3 48000 Hz 6 ch. 384 kbps

Медиа инфо

Видео
Идентификатор : 0
Формат : MPEG-4 Visual
Профиль формата : Advanced [email protected]
Параметр BVOP формата : 1
Параметр QPel формата : Нет
Параметр GMC формата : Без точки перехода
Параметр матрицы формата : Выборочная
Идентификатор кодека : XVID
Идентификатор кодека/Подсказка : XviD
Продолжительность : 1 ч. 14 м.
Битрейт : 2400 Кбит/сек
Ширина : 720 пикселей
Высота : 384 пикселя
Соотношение сторон : 1,896
Частота кадров : 25,000 кадров/сек
Цветовое пространство : YUV
Субдискретизация насыщенности : 4:2:0
Битовая глубина : 8 бит
Тип развёртки : Прогрессивная
Метод сжатия : С потерями
Бит/(Пиксели*Кадры) : 0.347
Размер потока : 1,25 Гбайт (86%)
Библиотека кодирования : XviD 1.2.1 (UTC 2008-12-04)
Аудио
Идентификатор : 1
Формат : AC-3
Формат/Информация : Audio Coding 3
Расширение режима : CM (complete main)
Параметр Endianness формата : Big
Идентификатор кодека : 2000
Продолжительность : 1 ч. 14 м.
Вид битрейта : Постоянный
Битрейт : 384 Кбит/сек
Каналы : 6 каналов
Расположение каналов : Front: L C R, Side: L R, LFE
Частота : 48,0 КГц
Битовая глубина : 16 бит
Метод сжатия : С потерями
Размер потока : 205 Мбайт (14%)
Выравнивание : Разделение по промежуткам
Продолжительность промежутка : 40 мс. (1,00 видеокадр)
Время предзагрузки промежутка : 500 мс.

Скриншоты




Создавать темы 08-Мар-2013 22:03

[Профиль]  [ЛС] 

Kubaev_Muhiddin ®

Стаж: 6 лет 8 месяцев

Сообщений: 104

Симпатии: 34

Проблемы с торрентами? Вот ссылка Toredo для сети Tas-ix.net. Качай и пользуйся
Toredo для сети Tas-ix.net

Создавать темы 13-Авг-2013 16:13

[Профиль]  [ЛС] 

oleg59

Стаж: 4 года 4 месяца

Сообщений: 4

как скачать сезон охоты 3. подскажите пожалуйста. охота посмотреть.

Создавать темы 14-Авг-2013 20:56

[Профиль]  [ЛС] 

xmn

Стаж: 4 года 1 месяц

Сообщений: 11

oleg59, нажимай на кнопку скачать откроется utorrent покажи путь куда сохранить и поставь галочку сезон охоты 3. будешь качать только эту
или Инструкции, FAQ-и http://tas-ix.net/viewtopic.php?t=58915

Создавать темы 15-Авг-2013 10:12

[Профиль]  [ЛС] 

oleg59

Стаж: 4 года 4 месяца

Сообщений: 4

качаю обучения торрент но скорость уж очень маленькая а так охота поскорей посмотреть.

Создавать темы 15-Авг-2013 20:41

[Профиль]  [ЛС] 

oleg59

Стаж: 4 года 4 месяца

Сообщений: 4

за ранние спасибо ХMN за ссылку,выручил,и всем кто принимал участие в создании и раздачи .

Создавать темы 15-Авг-2013 21:42

[Профиль]  [ЛС] 

Rominem

Стаж: 4 года 10 месяцев

Сообщений: 5

Большое спасибо за такой классный мультфильм!Хочется пересмотреть все сразу,добавьте скорости пожалуйста!Совсем немного!

Создавать темы 23-Май-2014 02:47

[Профиль]  [ЛС] 

LissMon

Стаж: 4 года 10 месяцев

Сообщений: 30

скорости плиз,очень был бы признателен!

Создавать темы 12-Авг-2014 22:07

[Профиль]  [ЛС] 

vlad_mir

Стаж: 4 года 1 месяц

Сообщений: 4

скорости пожалуйста,очень был бы признателен!

Создавать темы 16-Авг-2014 00:07

[Профиль]  [ЛС] 

Kaito

Стаж: 3 года 9 месяцев

Сообщений: 11

Симпатии: 1

Ни хера не качает

Создавать темы 15-Дек-2014 19:01

[Профиль]  [ЛС] 
Показать сообщения:    
Ответить на тему

Текущее время: 23-Сен 01:48

Часовой пояс: UTC + 5



Вы не можете начинать темы
Вы не можете отвечать на сообщения
Вы не можете редактировать свои сообщения
Вы не можете удалять свои сообщения
Вы не можете голосовать в опросах
Вы не можете прикреплять файлы к сообщениям
Вы не можете скачивать файлы