Ограбление казино / Killing Them Softly (Эндрю Доминик) [2012 г., Криминал, триллер, BDRip]

Ответить на тему
 

Imhoteb ®

Стаж: 5 лет 1 месяц

Сообщений: 22

Ограбление казино / Killing Them Softly
Год выпуска: 2012
Страна: США
Жанр: Криминал, триллер
Продолжительность: 01:37:06
Перевод: Профессиональный (полное дублирование)
Режиссер: Эндрю Доминик
В ролях: Брэд Питт, Скут МакНэйри, Бен Мендельсон, Ричард Дженкинс, Джеймс Гандольфини, Рэй Лиотта, Сэм Шепард, Слэйн, Макс Каселла, Тревор Лонг.
Описание: Во время подпольной игры в покер совершено ограбление, и угроза повисла над всем воровским сообществом. Воротилы мафии рассчитывают, что Джеки Коган найдет виновных. Однако, вращаясь среди нерешительных заказчиков, жуликов-ростовщиков, усталых убийц и тех, кто спланировал «дело», даже специалисту трудно сохранить контроль над ситуацией…
Качество: BDRip
Формат: MKV
Видео кодек: AVC
Аудио кодек: AC3, DTS
Видео: 5593 kb/s, 1280x534
Аудио: Russian: , 448 kb/s (6 ch) / English: DTS, 1510 kb/s (6 ch) + Субтитры UTF-8 (англ.)

Скриншоты







MediaINFO

General
Format : Matroska
File size : 5.23 GiB
Duration : 1h 37mn
Overall bit rate : 7 704 Kbps
Encoded date : UTC 2013-01-15 08:09:41
Writing application : mkvmerge v5.6.0 ('Kenya Kane') built on May 27 2012 16:44:04
Writing library : libebml v1.2.3 + libmatroska v1.3.0
Video #1
ID : 1
Format : AVC
Format/Info : Advanced Video Codec
Format profile : [email protected]
Format settings, CABAC : Yes
Format settings, ReFrames : 5 frames
Codec ID : V_MPEG4/ISO/AVC
Duration : 1h 37mn
Bit rate : 5 593 Kbps
Nominal bit rate : 6 000 Kbps
Width : 1 280 pixels
Height : 534 pixels
Display aspect ratio : 2.40:1
Frame rate : 24.000 fps
Color space : YUV
Chroma subsampling : 4:2:0
Bit depth : 8 bits
Scan type : Progressive
Bits/(Pixel*Frame) : 0.341
Stream size : 3.79 GiB (73%)
Language : English
Audio #2
ID : 2
Format : AC-3
Format/Info : Audio Coding 3
Mode extension : CM (complete main)
Codec ID : A_AC3
Duration : 1h 37mn
Bit rate mode : Constant
Bit rate : 448 Kbps
Channel(s) : 6 channels
Channel positions : Front: L C R, Side: L R, LFE
Sampling rate : 48.0 KHz
Bit depth : 16 bits
Compression mode : Lossy
Stream size : 311 MiB (6%)
Title : R5
Language : Russian
Audio #3
ID : 3
Format : DTS
Format/Info : Digital Theater Systems
Codec ID : A_DTS
Duration : 1h 37mn
Bit rate mode : Constant
Bit rate : 1 510 Kbps
Channel(s) : 6 channels
Channel positions : Front: L C R, Side: L R, LFE
Sampling rate : 48.0 KHz
Bit depth : 24 bits
Compression mode : Lossy
Stream size : 1.02 GiB (20%)
Language : English
Text #4
ID : 4
Format : UTF-8
Codec ID : S_TEXT/UTF8
Codec ID/Info : UTF-8 Plain Text
Language : English


Последний раз редактировалось: Imhoteb (2013-04-26 19:29), всего редактировалось 9 раз(а)

Создавать темы 09-Мар-2013 12:40

[Профиль]  [ЛС] 

Imhoteb ®

Стаж: 5 лет 1 месяц

Сообщений: 22

Первый раз выкладываю. Подскажите пожалуйста почему скриншоты не видны?

Создавать темы 09-Мар-2013 12:45

[Профиль]  [ЛС] 

allan

Стаж: 6 лет

Сообщений: 30

Симпатии: 2

ты не правельно сделал !!! нужно в таком формате : > [img]Cюда адрес впишы[/img]

Создавать темы 09-Мар-2013 12:59

[Профиль]  [ЛС] 

Imhoteb ®

Стаж: 5 лет 1 месяц

Сообщений: 22

ты не правельно сделал !!! нужно в таком формате : > [img]Cюда адрес впишы[/img]
Спасибо большое...!

Создавать темы 09-Мар-2013 13:08

[Профиль]  [ЛС] 

victor0778

Стаж: 6 лет 8 месяцев

Сообщений: 1670

Симпатии: 142

Формат: MKV Видео кодек: XviD это никак не сочетается, поправьте видео кодек

Создавать темы 09-Мар-2013 15:41

[Профиль]  [ЛС] 
Показать сообщения:    
Ответить на тему

Текущее время: 20-Окт 17:45

Часовой пояс: UTC + 5



Вы не можете начинать темы
Вы не можете отвечать на сообщения
Вы не можете редактировать свои сообщения
Вы не можете удалять свои сообщения
Вы не можете голосовать в опросах
Вы не можете прикреплять файлы к сообщениям
Вы не можете скачивать файлы