Ужение карася (Диалоги о рыбалке) (Иван Затевахин) [2005 г., Рыбалка и Охота, DVDRip]

Ответить на тему
 

rob ®

Стаж: 5 лет 3 месяца

Сообщений: 34

Симпатии: 5

Ужение карася (Диалоги о рыбалке)
Год выпуска: 2005
Жанр: Рыбалка и Охота
Продолжительность: 59:04
Режиссер: Иван Затевахин
Описание: Карась - рыба в буквальном смысле всероссийская, можно даже сказать общенародная. Редко встретишь рыболова, которому за его рыбацкую жизнь хотя бы раз не довелось половить эту рыбу. Да и среди тех, кто не числит себя рыболовом , кто только в детстве либо молодости баловался рыбалкой, а позже забросил это занятие, очень много таковых, для кого именно карась был самой первой рыбацкой добычей. Одним словом, мы уверены - узнать о ловле карася что-то новое и увлекательное хотят не все, но почти все рыболовы.
Мы поведаем вам о том, как прикармливать эту рыбу, какие она предпочитает насадки. - Расскажем о разных снастях и методах ужения карася, о классической ловле с поплавком, в том числе и об оснастке для дальнего заброса. О разных вариантах донной снасти, в частности об английской донке под названием - фидер. О новых перспективных методах ужения на летнюю мормышку. А также о ловле на штеккерную удочку, завоевывающую все большее число поклонников у нас в стране. Ежели опосля нашего повествования кто-нибудь всерьез заинтересуется той либо иной снастью, будем считать, что цели своей мы достигли. А выбор этот зависит от характера, пристрастий и склонностей самого рыболова. В этом-то и красота рыбалки - каждый может выбрать способ и стиль ловли, который ему по душе...
Качество: DVDRip
Формат: AVI
Видео кодек: XviD
Аудио кодек: MP3
Видео: Xvid 432x320 25.00fps 693 Kbps [Stream 00]
Аудио: MPEG Audio Layer 3 48000Hz stereo 128kbps [Stream 01]

Медиаинфо

Format : AVI
Format/Info : Audio Video Interleave
File size : 350 MiB
Duration : 59mn 4s
Overall bit rate mode : Variable
Overall bit rate : 828 Kbps
Writing application : VirtualDubMod 1.5.4.1 (build 2178/release)
Writing library : VirtualDubMod build 2178/release
Video
ID : 0
Format : MPEG-4 Visual
Format profile : Advanced [email protected]
Format settings, BVOP : 1
Format settings, QPel : No
Format settings, GMC : No warppoints
Format settings, Matrix : Custom
Codec ID : XVID
Codec ID/Hint : XviD
Duration : 59mn 4s
Bit rate : 693 Kbps
Width : 432 pixels
Height : 320 pixels
Display aspect ratio : 4:3
Frame rate : 25.000 fps
Color space : YUV
Chroma subsampling : 4:2:0
Bit depth : 8 bits
Scan type : Progressive
Compression mode : Lossy
Bits/(Pixel*Frame) : 0.200
Stream size : 293 MiB (84%)
Writing library : XviD 1.2.0SMP (UTC 2006-01-08)
Audio
ID : 1
Format : MPEG Audio
Format version : Version 1
Format profile : Layer 3
Mode : Joint stereo
Mode extension : MS Stereo
Codec ID : 55
Codec ID/Hint : MP3
Duration : 59mn 4s
Bit rate mode : Variable
Bit rate : 128 Kbps
Channel(s) : 2 channels
Sampling rate : 48.0 KHz
Compression mode : Lossy
Stream size : 51.7 MiB (15%)
Alignment : Aligned on interleaves
Interleave, duration : 24 ms (0.60 video frame)
Interleave, preload duration : 492 ms
Writing library : LAME3.97b
Encoding settings : -m j -V 4 -q 2 -lowpass 17 --abr 128
Language : Russian

Скриншоты





Последний раз редактировалось: rob (2013-03-09 20:02), всего редактировалось 2 раз(а)

Создавать темы 09-Мар-2013 15:17

[Профиль]  [ЛС] 
Показать сообщения:    
Ответить на тему

Текущее время: 16-Дек 10:16

Часовой пояс: UTC + 5



Вы не можете начинать темы
Вы не можете отвечать на сообщения
Вы не можете редактировать свои сообщения
Вы не можете удалять свои сообщения
Вы не можете голосовать в опросах
Вы не можете прикреплять файлы к сообщениям
Вы не можете скачивать файлы