Быстрый и мертвый / The Quick and the Dead (Сэм Рэйми) [1995 г., Вестерн, BDRip 1080p]

Ответить на тему
 

DOMINATOR ®

Стаж: 4 года 7 месяцев

Сообщений: 1

Быстрый и мертвый / The Quick and the Dead
Название: Быстрый и мертвый
Оригинальное название: The Quick and the Dead
Год выхода: 1995
Жанр: Вестерн
Страна: США, Япония
Продолжительность: 01:47:46
Перевод: Дубляж, Многоголосый закадровый, Авторский одноголосый
Режиссер: Сэм Рэйми
В ролях: Шэрон Стоун, Рассел Кроу, Джин Хэкмен, Леонардо ДиКаприо, Кит Дэвид , Лэнс Хенриксен, Гэри Синиз, Робертс Блоссом , Кевин Конуэй, Пэт Хингл, Марк Бун Джуниор ...
О фильме: Пустыня, и посреди нее — маленький грязный городок. Здесь только женщины и больные не носят кобуры на поясе. В городе хозяйничает Джон Ирод — жестокий и хладнокровный человек. Все его боятся, и каждая собака его знает. Если он разрешил тебе — ты можешь жить.
Но однажды на горизонте появляется незнакомый всадник. Он въезжает в город и медленно движется по главной улице. Но, вот незадача: это не он, а она — таинственная женщина-ковбой. Никто еще не догадывается, что появление Эллен изменит жизнь всего городка…
Качество: BDRip 1080p
Формат: MKV
Видео: MPEG-4 AVC (H264), 1920x1038, 23.976 fps, High Profile 4.1, ~19180 kbps
Аудио: 48 kHz, AC3, 3/2 (L,C,R,l,r) + LFE ch, ~640.00 kbps avg дубляж ICEE+вставки ВидеоСервисI
Аудио: 48 kHz, AC3, 2.0 (L,R) ch, ~224.00 kbps avg многоголосый закадровый I ВидеоСервис I
Аудио: 48 kHz, AC3, 2.0 (L,R) ch, ~224.00 kbps avg многоголосый закадровый I Первый канал I
Аудио: 48 kHz, AC3, 2.0 (L,R) ch, ~256.00 kbps avg одноголосый закадровый I А.Гаврилов I
Аудио: 48 kHz, DTS, 3/2 (L,C,R,l,r) + LFE ch, ~1510.00 kbps avg I original I
Субтитры : Russian, English
Дополнительно:

Знаете ли вы, что...

Сексуальная сцена с участием Эллен (Шэрон Стоун) и Курта (Рассел Кроу) была снята, однако в итоге Стоун и режиссер ленты Сэм Рэйми решили, что фильм вполне может обойтись и без этого эпизода. Примечательно, что этот эпизод был включен в версию, предназначенную для зарубежного проката.
Шэрон Стоун так хотела, чтобы в фильме снимался Леонардо Ди Каприо, что дала деньги на оплату его гонорара.
Рассела Кроу тоже пригласила Шэрон Стоун. Студия поначалу скептически отнеслась к ее выбору, поскольку этот австралийский актер был тогда еще практически не знаком американскому зрителю.
Все актеры, принимавшие участие в сценах перестрелок, прошли специальный инструктаж, обучаясь мгновенно выхватывать револьвер. А поскольку Джин Хэкман был занят на съемках меньше других, у него было больше времени для тренировок. В результате он стал быстрее всех проделывать эту операцию.
Во время съемок в Аризоне Шэрон Стоун уговорила Рассела провести рождественское утро вместе с ней в одном из отделений Армии Спасения, где они раздавали еду бедным. После этого они побывали в приюте для детей, которые подверглись домашнему насилию.
Из фильма была вырезана сцена свадьбы Кида и Мэтти Силк.
На данный момент это единственный фильм Сэма Рейми, в котором не появляется жёлтый «Олдсмобиль» 1973 года выпуска.

MediaInfo:

Общее
Уникальный идентификатор : 240747980485715937496727316819750928681 (0xB51E5FDD0EB6DCC0A7F8D11AA4CBC129)
Полное имя : T:\The Quick and the Dead [Быстрый и мертвый] (1995) 1920x1038 BDRip RusEngSubsChpt.mkv
Формат : Matroska
Размер файла : 16,6 Гбайт
Продолжительность : 1 ч. 47 м.
Общий поток : 22,0 Мбит/сек
Название фильма : -=RbM=-
Дата кодирования : UTC 2013-02-04 12:20:00
Программа кодирования : mkvmerge v6.0.0 ('Coming Up For Air') built on Jan 20 2013 09:52:00
Библиотека кодирования : libebml v1.3.0 + libmatroska v1.4.0
Видео
Идентификатор : 1
Формат : AVC
Формат/Информация : Advanced Video Codec
Профиль формата : [email protected]
Параметр CABAC формата : Да
Параметр ReFrames формата : 4 кадры
Идентификатор кодека : V_MPEG4/ISO/AVC
Продолжительность : 1 ч. 47 м.
Битрейт : 19,2 Мбит/сек
Ширина : 1920 пикс.
Высота : 1038 пикс.
Соотношение сторон : 1,850
Частота кадров : 23,976 кадр/сек
Цветовое пространство : YUV
Подвыборка цветности : 4:2:0
Битовая глубина : 8 бит
Тип развёртки : Прогрессивная
Бит/(Пиксели*Кадры) : 0.401
Размер потока : 14,1 Гбайт (85%)
Заголовок : 70% of the original
Библиотека кодирования : x264 core 129 r2245+704+36 8e61944 tMod+MixAQ [[email protected] X86_64]
Настройки программы : cabac=1 / ref=4 / deblock=1:-3:-2 / analyse=0x3:0x133 / me=umh / subme=11 / psy=1 / fade_compensate=0.00 / psy_rd=0.90:0.05 / mixed_ref=1 / me_range=32 / chroma_me=1 / trellis=2 / 8x8dct=1 / cqm=0 / deadzone=21,11 / fast_pskip=0 / chroma_qp_offset=-3 / threads=12 / lookahead_threads=2 / sliced_threads=0 / nr=0 / decimate=0 / interlaced=0 / bluray_compat=0 / constrained_intra=0 / fgo=0 / bframes=12 / b_pyramid=2 / b_adapt=2 / b_bias=0 / direct=3 / weightb=1 / open_gop=0 / weightp=2 / keyint=250 / keyint_min=23 / scenecut=40 / intra_refresh=0 / rc_lookahead=80 / rc=2pass / mbtree=1 / bitrate=19180 / ratetol=1.0 / qcomp=0.70 / qpmin=0 / qpmax=69 / qpstep=4 / cplxblur=20.0 / qblur=0.5 / ip_ratio=1.40 / aq=3 / aq-strength=0.70 / aq-sensitivity=10.00 / aq-ifactor=1.00 / aq-pfactor=1.00 / aq-bfactor=1.00 / aq2=0
Язык : English
Аудио #1
Идентификатор : 2
Формат : AC-3
Формат/Информация : Audio Coding 3
Расширение режима : CM (complete main)
Идентификатор кодека : A_AC3
Продолжительность : 1 ч. 47 м.
Вид битрейта : Постоянный
Битрейт : 640 Кбит/сек
Канал(ы) : 6 канала(ов)
Расположение каналов : Front: L C R, Side: L R, LFE
Частота : 48,0 КГц
Битовая глубина : 16 бит
Метод сжатия : С потерями
Размер потока : 493 Мбайт (3%)
Заголовок : Dub+MVO AC3 6ch 640kbps (Сони+ВидеоСервис)
Язык : Russian
Аудио #2
Идентификатор : 3
Формат : AC-3
Формат/Информация : Audio Coding 3
Расширение режима : CM (complete main)
Идентификатор кодека : A_AC3
Продолжительность : 1 ч. 47 м.
Вид битрейта : Постоянный
Битрейт : 224 Кбит/сек
Канал(ы) : 2 канала(ов)
Расположение каналов : Front: L R
Частота : 48,0 КГц
Битовая глубина : 16 бит
Метод сжатия : С потерями
Размер потока : 173 Мбайт (1%)
Заголовок : MVO AC3 2ch 224kbps (R5, ВидеоСервис)
Язык : Russian
Аудио #3
Идентификатор : 4
Формат : AC-3
Формат/Информация : Audio Coding 3
Расширение режима : CM (complete main)
Идентификатор кодека : A_AC3
Продолжительность : 1 ч. 47 м.
Вид битрейта : Постоянный
Битрейт : 224 Кбит/сек
Канал(ы) : 2 канала(ов)
Расположение каналов : Front: L R
Частота : 48,0 КГц
Битовая глубина : 16 бит
Метод сжатия : С потерями
Размер потока : 173 Мбайт (1%)
Заголовок : MVO AC3 2ch 224kbps (Первый канал)
Язык : Russian
Аудио #4
Идентификатор : 5
Формат : AC-3
Формат/Информация : Audio Coding 3
Расширение режима : CM (complete main)
Идентификатор кодека : A_AC3
Продолжительность : 1 ч. 47 м.
Вид битрейта : Постоянный
Битрейт : 256 Кбит/сек
Канал(ы) : 2 канала(ов)
Расположение каналов : Front: L R
Частота : 48,0 КГц
Битовая глубина : 16 бит
Метод сжатия : С потерями
Размер потока : 197 Мбайт (1%)
Заголовок : AVO AC3 2ch 256kbps (А.Гаврилов)
Язык : Russian
Аудио #5
Идентификатор : 6
Формат : DTS
Формат/Информация : Digital Theater Systems
Идентификатор кодека : A_DTS
Продолжительность : 1 ч. 47 м.
Вид битрейта : Постоянный
Битрейт : 1510 Кбит/сек
Канал(ы) : 6 канала(ов)
Расположение каналов : Front: L C R, Side: L R, LFE
Частота : 48,0 КГц
Битовая глубина : 24 бит
Метод сжатия : С потерями
Размер потока : 1,14 Гбайт (7%)
Заголовок : Original DTS 6ch 1510kbps
Язык : English
Текст #1
Идентификатор : 7
Формат : UTF-8
Идентификатор кодека : S_TEXT/UTF8
Идентификатор кодека/Информация : UTF-8 Plain Text
Язык : Russian
Текст #2
Идентификатор : 8
Формат : UTF-8
Идентификатор кодека : S_TEXT/UTF8
Идентификатор кодека/Информация : UTF-8 Plain Text
Язык : English
Меню
00:00:00.000 : :0:00:00.000
00:07:20.314 : :0:07:20.314
00:15:25.174 : :0:15:25.174
00:20:39.529 : :0:20:39.529
00:28:14.150 : :0:28:14.150
00:34:40.620 : :0:34:40.620
00:40:48.904 : :0:40:48.904
00:47:40.357 : :0:47:40.357
00:53:18.945 : :0:53:18.945
00:59:50.753 : :0:59:50.753
01:06:26.565 : :1:06:26.565
01:12:24.923 : :1:12:24.923
01:16:25.330 : :1:16:25.330
01:24:02.620 : :1:24:02.620
01:33:44.243 : :1:33:44.243
01:38:36.285 : :1:38:36.285

Скриншоты:





Последний раз редактировалось: DOMINATOR (2013-03-10 07:48), всего редактировалось 1 раз

Создавать темы 10-Мар-2013 02:25

[Профиль]  [ЛС] 

SpAcE

Стаж: 7 лет 1 месяц

Сообщений: 60

Фильм классный советую!

Создавать темы 10-Мар-2013 09:42

[Профиль]  [ЛС] 

Fuzuliy

Стаж: 5 лет 6 месяцев

Сообщений: 202

Симпатии: 12

Да я тоже смотрел когда то ваще крутой фильм

Создавать темы 10-Мар-2013 11:06

[Профиль]  [ЛС] 

reality

Стаж: 4 года 8 месяцев

Сообщений: 13

а почему 16 Гб

Создавать темы 05-Май-2013 22:18

[Профиль]  [ЛС] 

Asadovdiyor

Стаж: 5 лет 8 месяцев

Сообщений: 192

а почему 16 Гб
потому что качество отличное...

Создавать темы 05-Май-2013 23:09

[Профиль]  [ЛС] 
Показать сообщения:    
Ответить на тему

Текущее время: 25-Сен 20:21

Часовой пояс: UTC + 5



Вы не можете начинать темы
Вы не можете отвечать на сообщения
Вы не можете редактировать свои сообщения
Вы не можете удалять свои сообщения
Вы не можете голосовать в опросах
Вы не можете прикреплять файлы к сообщениям
Вы не можете скачивать файлы