Наруто Ураганные хроники / Naruto Shippuden (Датэ Хаято) [303 из ххх] [RUS, JAP] [2013 г., Приключения, комедия, боевые искусства, сёнэн, HDTVRip]

Ответить на тему
 

XAKER_97 ®

Стаж: 5 лет 4 месяца

Сообщений: 27

Наруто Ураганные хроники 303 серия / Naruto Shippuden
Год выпуска: 2013
Страна: Япония
Жанр: Приключения, комедия, боевые искусства, сёнэн
Перевод: Любительский (двухголосый)
Режиссер: Датэ Хаято
В ролях: Мэйл Флэнеган-Naruto Uzumaki Кейт Хиггинс-Sakura Haruno Джанко Текучи-Naruto Uzumaki Дейв Уиттенберг-Kakashi Hatake Чие Накамура-Sakura Haruno Трой Бэйкер-Yamato Казухико Иноэ-Kakashi Hatake Деби Мэй Уэст-Tsunade Бен Дискин-Sai Коллин О’Шонесси-Ino Yamanaka...
Описание: Второе пришествие популярного аниме-сериала «Наруто».
Это аниме покроет вторую часть сюжетной линии манги, которая берёт своё начало два года спустя, после событий в конце памятной арки о попытки вернуть Саске в деревню Скрытого Листа (серии 107-135).
История вращается в основном вокруг новых приключений Узумаки Наруто, Харуно Сакуры и их поиска Учиха Саске после того как тот покинул родную деревню чтобы обрести силу у Орочимару. Сюжет также покажет большую ативность, чем прежде Акатсуки в продвижении их плана по захвату всех «хвостатых» монстров
Качество: HDTVRip
Формат: mp4
Видео кодек: H.26x
Аудио кодек: MP3
Видео:
Длительность: 00:23:09
Кодек: AVC
Кодек/Профиль: High@L3.0
Кодек/ID: avc1
Размеры изображения: 854 x 480 (16:9)
Частота кадров: 23.976 fps
Размер потока: 169 MiB (88%)
Битрейт: 1 000 Kbps
Библиотека кодирования: x264 core 125 r2 d9d2288
Звук:
Длительность: 00:23:08.990
Кодек: AAC
Кодек/ID: 40
Частота дискретизации: 48.0 KHz
Каналов: 2 channels
Битрейт: 128 Kbps
Размер потока: 21.1 MiB (11%)

Скриншоты






Последний раз редактировалось: XAKER_97 (2013-03-14 09:32), всего редактировалось 4 раз(а)

Создавать темы 10-Мар-2013 12:59

[Профиль]  [ЛС] 

Erkowa

Стаж: 4 года 11 месяцев

Сообщений: 20

зачем не качает,?

Создавать темы 10-Мар-2013 13:26

[Профиль]  [ЛС] 

Rambotnik

Стаж: 6 лет 5 месяцев

Сообщений: 1274

Симпатии: 81

Дооформляем техданные и шапку по правилам раздела.

Создавать темы 10-Мар-2013 20:24

[Профиль]  [ЛС] 

XAKER_97 ®

Стаж: 5 лет 4 месяца

Сообщений: 27

Rambotnik,
Всё окей! я всё сделал, можете проверить.

Создавать темы 11-Мар-2013 19:10

[Профиль]  [ЛС] 

sher_zet

Стаж: 4 года 7 месяцев

Сообщений: 90

Симпатии: 8

Добавте скорости пожалуйста

Создавать темы 17-Мар-2013 20:06

[Профиль]  [ЛС] 

sher_zet

Стаж: 4 года 7 месяцев

Сообщений: 90

Симпатии: 8

чото не качает

Создавать темы 17-Мар-2013 20:06

[Профиль]  [ЛС] 
Показать сообщения:    
Ответить на тему

Текущее время: 23-Окт 09:28

Часовой пояс: UTC + 5



Вы не можете начинать темы
Вы не можете отвечать на сообщения
Вы не можете редактировать свои сообщения
Вы не можете удалять свои сообщения
Вы не можете голосовать в опросах
Вы не можете прикреплять файлы к сообщениям
Вы не можете скачивать файлы