Жизнь Пи / Life of Pi (Энг Ли) [2012 г., драма, приключения, WEB-DLRip 720p]

Страницы :  1, 2  След.

Ответить на тему
 

DMiTRY ®

Стаж: 6 лет 5 месяцев

Сообщений: 649

Симпатии: 28

Жизнь Пи / Life of Pi--
Год выпуска: 2012
Страна: США, Тайвань
Жанр: драма, приключения
Продолжительность: 02:07:22
Перевод: Профессиональный (полное дублирование)
--Режиссер:: Энг Ли-В ролях: Сурадж Шарма, Ирфан Кхан, Рейф Сполл, Табу, Адиль Хуссэйн, Жерар Депардье, Аюш Тандон, Гаутам Белур, Аян Кхан, Мохд Аббас Халили, Вибиш Шивакумар, Джеймс Саито-Описание: Главный герой фильма оказывается на шлюпке посреди океана в компании неожиданного попутчика - грозного бенгальского тигра.--

Качество:WEB-DLRip 720p
Формат: MKV-Видео кодек: MPEG-4 AVC
Аудио кодек: AC3-Видео: AVC; 1280x688 (1.860); 3880 Kbps; 23,976 fps; 0,184 bpp-Аудио №1: русский: AC3; 448 Kbps; CBR; 6 ch; 16 bit | Профессиональный (полное дублирование) ;
Аудио №2: русский: AC3; 192 Kbps; CBR; 2 ch; 16 bit | Любительский (одноголосый) ;
Аудио №3: английский: AC3; 384 Kbps; CBR; 6 ch; 16 bit | Original-

Скриншоты



Медиаинфо

Общее
Уникальный идентификатор : 210920939645618420795521026974154391758 (0x9EADE5361002D344A24DA833C4EA80CE)
Полное имя : E:\фильмы\Жизнь Пи [2012 WEB-DL-RIP 720p].mkv
Формат : Matroska
Версия формата : Version 4 / Version 2
Размер файла : 4,45 Гбайт
Продолжительность : 2 ч. 7 м.
Общий поток : 4998 Кбит/сек
Название фильма : -==ziyod==-
Дата кодирования : UTC 2013-03-02 02:29:04
Программа кодирования : mkvmerge v6.0.0 ('Coming Up For Air') built on Jan 20 2013 09:52:00
Библиотека кодирования : libebml v1.3.0 + libmatroska v1.4.0
Видео
Идентификатор : 1
Формат : AVC
Формат/Информация : Advanced Video Codec
Профиль формата : [email protected]
Параметр CABAC формата : Нет
Параметр ReFrames формата : 2 кадра
Идентификатор кодека : V_MPEG4/ISO/AVC
Продолжительность : 2 ч. 7 м.
Битрейт : 3874 Кбит/сек
Ширина : 1280 пикселей
Высота : 688 пикселей
Соотношение сторон : 1,860
Частота кадров : 23,976 кадра/сек
Цветовое пространство : YUV
Субдискретизация насыщенности : 4:2:0
Битовая глубина : 8 бит
Тип развёртки : Прогрессивная
Бит/(Пиксели*Кадры) : 0.183
Размер потока : 3,45 Гбайт (78%)
Язык : English
Default : Да
Forced : Нет
Основные цвета : BT.709-5, BT.1361, IEC 61966-2-4, SMPTE RP177
Характеристики трансфера : BT.709-5, BT.1361
Коэффициенты матрицы : BT.709-5, BT.1361, IEC 61966-2-4 709, SMPTE RP177
Аудио #1
Идентификатор : 2
Формат : AC-3
Формат/Информация : Audio Coding 3
Расширение режима : CM (complete main)
Параметр Endianness формата : Big
Идентификатор кодека : A_AC3
Продолжительность : 2 ч. 7 м.
Вид битрейта : Постоянный
Битрейт : 448 Кбит/сек
Каналы : 6 каналов
Расположение каналов : Front: L C R, Side: L R, LFE
Частота : 48,0 КГц
Битовая глубина : 16 бит
Метод сжатия : С потерями
Размер потока : 408 Мбайт (9%)
Заголовок : DUB
Язык : Russian
Default : Да
Forced : Нет
Аудио #2
Идентификатор : 3
Формат : AC-3
Формат/Информация : Audio Coding 3
Расширение режима : CM (complete main)
Параметр Endianness формата : Big
Идентификатор кодека : A_AC3
Продолжительность : 2 ч. 7 м.
Вид битрейта : Постоянный
Битрейт : 192 Кбит/сек
Каналы : 2 канала
Расположение каналов : Front: L R
Частота : 48,0 КГц
Битовая глубина : 16 бит
Метод сжатия : С потерями
Задержка видео : 928 мс.
Размер потока : 175 Мбайт (4%)
Заголовок : LVO-zames
Язык : Russian
Default : Нет
Forced : Нет
Аудио #3
Идентификатор : 4
Формат : AC-3
Формат/Информация : Audio Coding 3
Расширение режима : CM (complete main)
Параметр Endianness формата : Big
Идентификатор кодека : A_AC3
Продолжительность : 2 ч. 7 м.
Вид битрейта : Постоянный
Битрейт : 384 Кбит/сек
Каналы : 6 каналов
Расположение каналов : Front: L C R, Side: L R, LFE
Частота : 48,0 КГц
Битовая глубина : 16 бит
Метод сжатия : С потерями
Размер потока : 350 Мбайт (8%)
Заголовок : Original
Язык : English
Default : Нет
Forced : Нет
Текст #1
Идентификатор : 5
Формат : UTF-8
Идентификатор кодека : S_TEXT/UTF8
Идентификатор кодека/Информация : UTF-8 Plain Text
Заголовок : Russian
Язык : Russian
Default : Нет
Forced : Нет
Текст #2
Идентификатор : 6
Формат : UTF-8
Идентификатор кодека : S_TEXT/UTF8
Идентификатор кодека/Информация : UTF-8 Plain Text
Заголовок : English
Язык : English
Default : Нет
Forced : Нет
Меню
00:00:00.000 : en:Chapter 1
00:03:57.000 : en:Chapter 2
00:11:13.000 : en:Chapter 3
00:15:23.000 : en:Chapter 4
00:21:29.000 : en:Chapter 5
00:25:44.000 : en:Chapter 6
00:29:46.000 : en:Chapter 7
00:31:31.000 : en:Chapter 8
00:35:34.000 : en:Chapter 9
00:45:22.000 : en:Chapter 10
00:50:21.000 : en:Chapter 11
00:54:13.000 : en:Chapter 12
00:57:17.000 : en:Chapter 13
01:00:07.000 : en:Chapter 14
01:04:12.000 : en:Chapter 15
01:09:31.000 : en:Chapter 16
01:11:48.000 : en:Chapter 17
01:13:32.000 : en:Chapter 18
01:16:47.000 : en:Chapter 19
01:21:31.000 : en:Chapter 20
01:23:06.000 : en:Chapter 21
01:26:30.000 : en:Chapter 22
01:31:19.000 : en:Chapter 23
01:34:11.000 : en:Chapter 24
01:43:42.000 : en:Chapter 25
01:47:38.000 : en:Chapter 26
01:55:20.000 : en:Chapter 27
01:59:13.000 : en:Chapter 28
Отдельное спасибо модератору ziyod за предоставленный материал:)


Последний раз редактировалось: DMiTRY (2013-03-10 18:46), всего редактировалось 3 раз(а)

Создавать темы 10-Мар-2013 13:31

[Профиль]  [ЛС] 

hakker_92

Стаж: 5 лет 9 месяцев

Сообщений: 15

DMiTRY, спасибо за релиз

Создавать темы 10-Мар-2013 13:58

[Профиль]  [ЛС] 

sony007

Стаж: 4 года 8 месяцев

Сообщений: 9

DMiTRY, спасибо большое за релиз

Создавать темы 10-Мар-2013 14:28

[Профиль]  [ЛС] 

Sinatro

Стаж: 5 лет 9 месяцев

Сообщений: 117

Симпатии: 2

DMiTRY спасибо

Создавать темы 10-Мар-2013 15:19

[Профиль]  [ЛС] 

DMiTRY ®

Стаж: 6 лет 5 месяцев

Сообщений: 649

Симпатии: 28

hakker_92, sony007, Sinatro, всегда пожалуйста.

Создавать темы 10-Мар-2013 15:24

[Профиль]  [ЛС] 

Robot-IX

Стаж: 5 лет 6 месяцев

Сообщений: 223

Симпатии: 9

DMiTRY, МОЛОДЧИНА !!!
как и обещал, так и сделал!
теперь дело за нами... вытягивать! да побыстрей! ))

Создавать темы 10-Мар-2013 15:33

[Профиль]  [ЛС] 

DMiTRY ®

Стаж: 6 лет 5 месяцев

Сообщений: 649

Симпатии: 28

сразу прошу извинения за убогую скорость,какие-то непонятные проблемы с провайдером.

Создавать темы 10-Мар-2013 15:36

[Профиль]  [ЛС] 

Robot-IX

Стаж: 5 лет 6 месяцев

Сообщений: 223

Симпатии: 9

сразу прошу извинения за убогую скорость,какие-то непонятные проблемы с провайдером.
не чё, не чё...! давай хоть по убогому... ))

Создавать темы 10-Мар-2013 16:05

[Профиль]  [ЛС] 

Топик был перенесен из форума Зарубежное кино в форум HD-AVC

Mixer City

Создавать темы 10-Мар-2013 16:49

 

ziyod

Стаж: 7 лет 7 месяцев

Сообщений: 367

Симпатии: 60

DMiTRY, а ну-ка Mediainfo дайте-ка...

Создавать темы 10-Мар-2013 17:34

[Профиль]  [ЛС] 

Robot-IX

Стаж: 5 лет 6 месяцев

Сообщений: 223

Симпатии: 9

DMiTRY, ! тебе замечание от модера! не спи...

Media Info

General
Unique ID : 210920939645618420795521026974154391758 (0x9EADE5361002D344A24DA833C4EA80CE)
Complete name : D:\Torent\Жизнь Пи [2012 WEB-DL-RIP 720p].mkv
Format : Matroska
Format version : Version 4 / Version 2
File size : 4.45 GiB
Duration : 2h 7mn
Overall bit rate : 4 998 Kbps
Movie name : -==ziyod==-
Encoded date : UTC 2013-03-02 02:29:04
Writing application : mkvmerge v6.0.0 ('Coming Up For Air') built on Jan 20 2013 09:52:00
Writing library : libebml v1.3.0 + libmatroska v1.4.0
Video
ID : 1
Format : AVC
Format/Info : Advanced Video Codec
Format profile : [email protected]
Format settings, CABAC : No
Format settings, ReFrames : 2 frames
Codec ID : V_MPEG4/ISO/AVC
Duration : 2h 7mn
Bit rate : 3 874 Kbps
Width : 1 280 pixels
Height : 688 pixels
Display aspect ratio : 1.860
Frame rate : 23.976 fps
Color space : YUV
Chroma subsampling : 4:2:0
Bit depth : 8 bits
Scan type : Progressive
Bits/(Pixel*Frame) : 0.183
Stream size : 3.45 GiB (78%)
Language : English
Default : Yes
Forced : No
Color primaries : BT.709-5, BT.1361, IEC 61966-2-4, SMPTE RP177
Transfer characteristics : BT.709-5, BT.1361
Matrix coefficients : BT.709-5, BT.1361, IEC 61966-2-4 709, SMPTE RP177
Audio #1
ID : 2
Format : AC-3
Format/Info : Audio Coding 3
Mode extension : CM (complete main)
Codec ID : A_AC3
Duration : 2h 7mn
Bit rate mode : Constant
Bit rate : 448 Kbps
Channel(s) : 6 channels
Channel positions : Front: L C R, Side: L R, LFE
Sampling rate : 48.0 KHz
Bit depth : 16 bits
Compression mode : Lossy
Stream size : 408 MiB (9%)
Title : DUB
Language : Russian
Default : Yes
Forced : No
Audio #2
ID : 3
Format : AC-3
Format/Info : Audio Coding 3
Mode extension : CM (complete main)
Codec ID : A_AC3
Duration : 2h 7mn
Bit rate mode : Constant
Bit rate : 192 Kbps
Channel(s) : 2 channels
Channel positions : Front: L R
Sampling rate : 48.0 KHz
Bit depth : 16 bits
Compression mode : Lossy
Delay relative to video : 928ms
Stream size : 175 MiB (4%)
Title : LVO-zames
Language : Russian
Default : No
Forced : No
Audio #3
ID : 4
Format : AC-3
Format/Info : Audio Coding 3
Mode extension : CM (complete main)
Codec ID : A_AC3
Duration : 2h 7mn
Bit rate mode : Constant
Bit rate : 384 Kbps
Channel(s) : 6 channels
Channel positions : Front: L C R, Side: L R, LFE
Sampling rate : 48.0 KHz
Bit depth : 16 bits
Compression mode : Lossy
Stream size : 350 MiB (8%)
Title : Original
Language : English
Default : No
Forced : No
Text #1
ID : 5
Format : UTF-8
Codec ID : S_TEXT/UTF8
Codec ID/Info : UTF-8 Plain Text
Title : Russian
Language : Russian
Default : No
Forced : No
Text #2
ID : 6
Format : UTF-8
Codec ID : S_TEXT/UTF8
Codec ID/Info : UTF-8 Plain Text
Title : English
Language : English
Default : No
Forced : No
Menu
00:00:00.000 : en:Chapter 1
00:03:57.000 : en:Chapter 2
00:11:13.000 : en:Chapter 3
00:15:23.000 : en:Chapter 4
00:21:29.000 : en:Chapter 5
00:25:44.000 : en:Chapter 6
00:29:46.000 : en:Chapter 7
00:31:31.000 : en:Chapter 8
00:35:34.000 : en:Chapter 9
00:45:22.000 : en:Chapter 10
00:50:21.000 : en:Chapter 11
00:54:13.000 : en:Chapter 12
00:57:17.000 : en:Chapter 13
01:00:07.000 : en:Chapter 14
01:04:12.000 : en:Chapter 15
01:09:31.000 : en:Chapter 16
01:11:48.000 : en:Chapter 17
01:13:32.000 : en:Chapter 18
01:16:47.000 : en:Chapter 19
01:21:31.000 : en:Chapter 20
01:23:06.000 : en:Chapter 21
01:26:30.000 : en:Chapter 22
01:31:19.000 : en:Chapter 23
01:34:11.000 : en:Chapter 24
01:43:42.000 : en:Chapter 25
01:47:38.000 : en:Chapter 26
01:55:20.000 : en:Chapter 27
01:59:13.000 : en:Chapter 28

Создавать темы 10-Мар-2013 17:51

[Профиль]  [ЛС] 

DMiTRY ®

Стаж: 6 лет 5 месяцев

Сообщений: 649

Симпатии: 28

DMiTRY, а ну-ка Mediainfo дайте-ка...

Медиаинфо

Общее
Уникальный идентификатор : 210920939645618420795521026974154391758 (0x9EADE5361002D344A24DA833C4EA80CE)
Полное имя : E:\фильмы\Жизнь Пи [2012 WEB-DL-RIP 720p].mkv
Формат : Matroska
Версия формата : Version 4 / Version 2
Размер файла : 4,45 Гбайт
Продолжительность : 2 ч. 7 м.
Общий поток : 4998 Кбит/сек
Название фильма : Жизнь Пи [WEB DL-RIP 720p]
Дата кодирования : UTC 2013-03-02 02:29:04
Программа кодирования : mkvmerge v6.0.0 ('Coming Up For Air') built on Jan 20 2013 09:52:00
Библиотека кодирования : libebml v1.3.0 + libmatroska v1.4.0
Видео
Идентификатор : 1
Формат : AVC
Формат/Информация : Advanced Video Codec
Профиль формата : [email protected]
Параметр CABAC формата : Нет
Параметр ReFrames формата : 2 кадра
Идентификатор кодека : V_MPEG4/ISO/AVC
Продолжительность : 2 ч. 7 м.
Битрейт : 3874 Кбит/сек
Ширина : 1280 пикселей
Высота : 688 пикселей
Соотношение сторон : 1,860
Частота кадров : 23,976 кадра/сек
Цветовое пространство : YUV
Субдискретизация насыщенности : 4:2:0
Битовая глубина : 8 бит
Тип развёртки : Прогрессивная
Бит/(Пиксели*Кадры) : 0.183
Размер потока : 3,45 Гбайт (78%)
Язык : English
Default : Да
Forced : Нет
Основные цвета : BT.709-5, BT.1361, IEC 61966-2-4, SMPTE RP177
Характеристики трансфера : BT.709-5, BT.1361
Коэффициенты матрицы : BT.709-5, BT.1361, IEC 61966-2-4 709, SMPTE RP177
Аудио #1
Идентификатор : 2
Формат : AC-3
Формат/Информация : Audio Coding 3
Расширение режима : CM (complete main)
Параметр Endianness формата : Big
Идентификатор кодека : A_AC3
Продолжительность : 2 ч. 7 м.
Вид битрейта : Постоянный
Битрейт : 448 Кбит/сек
Каналы : 6 каналов
Расположение каналов : Front: L C R, Side: L R, LFE
Частота : 48,0 КГц
Битовая глубина : 16 бит
Метод сжатия : С потерями
Размер потока : 408 Мбайт (9%)
Заголовок : DUB
Язык : Russian
Default : Да
Forced : Нет
Аудио #2
Идентификатор : 3
Формат : AC-3
Формат/Информация : Audio Coding 3
Расширение режима : CM (complete main)
Параметр Endianness формата : Big
Идентификатор кодека : A_AC3
Продолжительность : 2 ч. 7 м.
Вид битрейта : Постоянный
Битрейт : 192 Кбит/сек
Каналы : 2 канала
Расположение каналов : Front: L R
Частота : 48,0 КГц
Битовая глубина : 16 бит
Метод сжатия : С потерями
Задержка видео : 928 мс.
Размер потока : 175 Мбайт (4%)
Заголовок : LVO-zames
Язык : Russian
Default : Нет
Forced : Нет
Аудио #3
Идентификатор : 4
Формат : AC-3
Формат/Информация : Audio Coding 3
Расширение режима : CM (complete main)
Параметр Endianness формата : Big
Идентификатор кодека : A_AC3
Продолжительность : 2 ч. 7 м.
Вид битрейта : Постоянный
Битрейт : 384 Кбит/сек
Каналы : 6 каналов
Расположение каналов : Front: L C R, Side: L R, LFE
Частота : 48,0 КГц
Битовая глубина : 16 бит
Метод сжатия : С потерями
Размер потока : 350 Мбайт (8%)
Заголовок : Original
Язык : English
Default : Нет
Forced : Нет
Текст #1
Идентификатор : 5
Формат : UTF-8
Идентификатор кодека : S_TEXT/UTF8
Идентификатор кодека/Информация : UTF-8 Plain Text
Заголовок : Russian
Язык : Russian
Default : Нет
Forced : Нет
Текст #2
Идентификатор : 6
Формат : UTF-8
Идентификатор кодека : S_TEXT/UTF8
Идентификатор кодека/Информация : UTF-8 Plain Text
Заголовок : English
Язык : English
Default : Нет
Forced : Нет
Меню
00:00:00.000 : en:Chapter 1
00:03:57.000 : en:Chapter 2
00:11:13.000 : en:Chapter 3
00:15:23.000 : en:Chapter 4
00:21:29.000 : en:Chapter 5
00:25:44.000 : en:Chapter 6
00:29:46.000 : en:Chapter 7
00:31:31.000 : en:Chapter 8
00:35:34.000 : en:Chapter 9
00:45:22.000 : en:Chapter 10
00:50:21.000 : en:Chapter 11
00:54:13.000 : en:Chapter 12
00:57:17.000 : en:Chapter 13
01:00:07.000 : en:Chapter 14
01:04:12.000 : en:Chapter 15
01:09:31.000 : en:Chapter 16
01:11:48.000 : en:Chapter 17
01:13:32.000 : en:Chapter 18
01:16:47.000 : en:Chapter 19
01:21:31.000 : en:Chapter 20
01:23:06.000 : en:Chapter 21
01:26:30.000 : en:Chapter 22
01:31:19.000 : en:Chapter 23
01:34:11.000 : en:Chapter 24
01:43:42.000 : en:Chapter 25
01:47:38.000 : en:Chapter 26
01:55:20.000 : en:Chapter 27
01:59:13.000 : en:Chapter 28

Создавать темы 10-Мар-2013 18:07

[Профиль]  [ЛС] 

ziyod

Стаж: 7 лет 7 месяцев

Сообщений: 367

Симпатии: 60

Вот и славно,
Movie name : -==ziyod==-
моя сборка, т.е. скачка, сводка звуков и субтитров в одну, не плохо было известить о релизе, я вообщето не против но все же...

Создавать темы 10-Мар-2013 18:19

[Профиль]  [ЛС] 

Robot-IX

Стаж: 5 лет 6 месяцев

Сообщений: 223

Симпатии: 9

Вот и славно,
Movie name : -==ziyod==-
моя сборка, т.е. скачка, сводка звуков и субтитров в одну, не плохо было известить о релизе, я вообщето не против но все же...
дааа... ziyod я тоже заметил. ))
вот блин, Димка шустрый! ))))))

Создавать темы 10-Мар-2013 18:24

[Профиль]  [ЛС] 

ziyod

Стаж: 7 лет 7 месяцев

Сообщений: 367

Симпатии: 60

Robot-IX, даже постер скачивал с blu-ray.com :)

Создавать темы 10-Мар-2013 18:24

[Профиль]  [ЛС] 
Показать сообщения:    
Ответить на тему

Текущее время: 22-Окт 12:57

Часовой пояс: UTC + 5



Вы не можете начинать темы
Вы не можете отвечать на сообщения
Вы не можете редактировать свои сообщения
Вы не можете удалять свои сообщения
Вы не можете голосовать в опросах
Вы не можете прикреплять файлы к сообщениям
Вы не можете скачивать файлы